  0
SECTION
  2
HEADER
  9
$ACADVER
  1
AC1009
  9
$INSBASE
 10
0.0
 20
0.0
 30
0.0
  9
$EXTMIN
 10
-0.0064082024694017
 20
-0.00924865945899
 30
-0.0000000000000076
  9
$EXTMAX
 10
210.00640918035799
 20
303.09244628371152
 30
0.0000000000000078
  9
$LIMMIN
 10
0.0
 20
0.0
  9
$LIMMAX
 10
210.0
 20
297.0
  9
$ORTHOMODE
 70
     0
  9
$REGENMODE
 70
     1
  9
$FILLMODE
 70
     1
  9
$QTEXTMODE
 70
     0
  9
$MIRRTEXT
 70
     1
  9
$DRAGMODE
 70
     2
  9
$LTSCALE
 40
1.0
  9
$OSMODE
 70
    39
  9
$ATTMODE
 70
     1
  9
$TEXTSIZE
 40
2.5
  9
$TRACEWID
 40
1.0
  9
$TEXTSTYLE
  7
STANDARD
  9
$CLAYER
  8
0
  9
$CELTYPE
  6
BYLAYER
  9
$CECOLOR
 62
   256
  9
$DIMSCALE
 40
1.0
  9
$DIMASZ
 40
3.5
  9
$DIMEXO
 40
1.0
  9
$DIMDLI
 40
3.75
  9
$DIMRND
 40
0.0
  9
$DIMDLE
 40
0.0
  9
$DIMEXE
 40
1.0
  9
$DIMTP
 40
0.0
  9
$DIMTM
 40
0.0
  9
$DIMTXT
 40
3.5
  9
$DIMCEN
 40
2.5
  9
$DIMTSZ
 40
0.0
  9
$DIMTOL
 70
     0
  9
$DIMLIM
 70
     0
  9
$DIMTIH
 70
     1
  9
$DIMTOH
 70
     1
  9
$DIMSE1
 70
     0
  9
$DIMSE2
 70
     0
  9
$DIMTAD
 70
     1
  9
$DIMZIN
 70
     0
  9
$DIMBLK
  1

  9
$DIMASO
 70
     1
  9
$DIMSHO
 70
     1
  9
$DIMPOST
  1

  9
$DIMAPOST
  1

  9
$DIMALT
 70
     0
  9
$DIMALTD
 70
     3
  9
$DIMALTF
 40
0.0393700787401575
  9
$DIMLFAC
 40
1.0
  9
$DIMTOFL
 70
     1
  9
$DIMTVP
 40
0.0
  9
$DIMTIX
 70
     0
  9
$DIMSOXD
 70
     0
  9
$DIMSAH
 70
     0
  9
$DIMBLK1
  1

  9
$DIMBLK2
  1

  9
$DIMSTYLE
  2
ISO-25
  9
$DIMCLRD
 70
     0
  9
$DIMCLRE
 70
     0
  9
$DIMCLRT
 70
     0
  9
$DIMTFAC
 40
1.0
  9
$DIMGAP
 40
2.0
  9
$LUNITS
 70
     2
  9
$LUPREC
 70
     2
  9
$SKETCHINC
 40
1.0
  9
$FILLETRAD
 40
10.0
  9
$AUNITS
 70
     0
  9
$AUPREC
 70
     2
  9
$MENU
  1
.
  9
$ELEVATION
 40
0.0
  9
$PELEVATION
 40
0.0
  9
$THICKNESS
 40
0.0
  9
$LIMCHECK
 70
     0
  9
$BLIPMODE
 70
     0
  9
$CHAMFERA
 40
10.0
  9
$CHAMFERB
 40
10.0
  9
$SKPOLY
 70
     0
  9
$TDCREATE
 40
2455138.7269705092
  9
$TDUPDATE
 40
2456744.5060555902
  9
$TDINDWG
 40
0.0050740972
  9
$TDUSRTIMER
 40
0.0050740972
  9
$USRTIMER
 70
     1
  9
$ANGBASE
 50
0.0
  9
$ANGDIR
 70
     0
  9
$PDMODE
 70
     0
  9
$PDSIZE
 40
-1.0
  9
$PLINEWID
 40
0.0
  9
$COORDS
 70
     1
  9
$SPLFRAME
 70
     0
  9
$SPLINETYPE
 70
     6
  9
$SPLINESEGS
 70
     8
  9
$ATTDIA
 70
     0
  9
$ATTREQ
 70
     1
  9
$HANDLING
 70
     1
  9
$HANDSEED
  5
A46
  9
$SURFTAB1
 70
     6
  9
$SURFTAB2
 70
     6
  9
$SURFTYPE
 70
     6
  9
$SURFU
 70
     6
  9
$SURFV
 70
     6
  9
$UCSNAME
  2

  9
$UCSORG
 10
0.0
 20
0.0
 30
0.0
  9
$UCSXDIR
 10
1.0
 20
0.0
 30
0.0
  9
$UCSYDIR
 10
0.0
 20
1.0
 30
0.0
  9
$PUCSNAME
  2

  9
$PUCSORG
 10
0.0
 20
0.0
 30
0.0
  9
$PUCSXDIR
 10
1.0
 20
0.0
 30
0.0
  9
$PUCSYDIR
 10
0.0
 20
1.0
 30
0.0
  9
$USERI1
 70
     0
  9
$USERI2
 70
     0
  9
$USERI3
 70
     0
  9
$USERI4
 70
     0
  9
$USERI5
 70
     0
  9
$USERR1
 40
0.0
  9
$USERR2
 40
0.0
  9
$USERR3
 40
0.0
  9
$USERR4
 40
0.0
  9
$USERR5
 40
0.0
  9
$WORLDVIEW
 70
     1
  9
$SHADEDGE
 70
     3
  9
$SHADEDIF
 70
    70
  9
$TILEMODE
 70
     1
  9
$MAXACTVP
 70
    64
  9
$PLIMCHECK
 70
     0
  9
$PEXTMIN
 10
1.0000000000000000E+020
 20
1.0000000000000000E+020
 30
1.0000000000000000E+020
  9
$PEXTMAX
 10
-1.0000000000000000E+020
 20
-1.0000000000000000E+020
 30
-1.0000000000000000E+020
  9
$PLIMMIN
 10
0.0
 20
0.0
  9
$PLIMMAX
 10
420.0
 20
297.0
  9
$UNITMODE
 70
     0
  9
$VISRETAIN
 70
     1
  9
$PLINEGEN
 70
     0
  9
$PSLTSCALE
 70
     1
  0
ENDSEC
  0
SECTION
  2
TABLES
  0
TABLE
  2
VPORT
 70
     1
  0
VPORT
  2
*ACTIVE
 70
     0
 10
0.0
 20
0.0
 11
1.0
 21
1.0
 12
105.00000048894429
 22
151.54159881212621
 13
0.0
 23
0.0
 14
10.0
 24
10.0
 15
10.0
 25
10.0
 16
0.0
 26
0.0
 36
1.0
 17
0.0
 27
0.0
 37
0.0
 40
305.01803864144131
 41
1.6603375527426161
 42
50.0
 43
0.0
 44
0.0
 50
0.0
 51
0.0
 71
     0
 72
  2000
 73
     1
 74
     3
 75
     0
 76
     0
 77
     0
 78
     0
  0
ENDTAB
  0
TABLE
  2
LTYPE
 70
     6
  0
LTYPE
  2
CONTINUOUS
 70
     0
  3
Solid line
 72
    65
 73
     0
 40
0.0
  0
LTYPE
  2
HIDDEN
 70
     0
  3
Hidden __ __ __ __ __ __ __ __ __ __ __ __ __ __
 72
    65
 73
     2
 40
1.905
 49
1.27
 49
-0.635
  0
LTYPE
  2
PHANTOM
 70
     0
  3
Phantom ______  __  __  ______  __  __  ______
 72
    65
 73
     6
 40
12.699999999999999
 49
6.3499999999999988
 49
-1.27
 49
1.27
 49
-1.27
 49
1.27
 49
-1.27
  0
LTYPE
  2
CENTER
 70
     0
  3
Center ____ _ ____ _ ____ _ ____ _ ____ _ ____
 72
    65
 73
     4
 40
10.16
 49
6.3499999999999988
 49
-1.27
 49
1.27
 49
-1.27
  0
LTYPE
  2
CENTERX2
 70
     0
  3
Center (2x) ________  __  ________  __  _____
 72
    65
 73
     4
 40
20.32
 49
12.699999999999999
 49
-2.54
 49
2.54
 49
-2.54
  0
LTYPE
  2
DOT2
 70
     0
  3
Dot (.5x) ........................................
 72
    65
 73
     2
 40
0.635
 49
0.0
 49
-0.635
  0
ENDTAB
  0
TABLE
  2
LAYER
 70
    10
  0
LAYER
  2
0
 70
     0
 62
     7
  6
CONTINUOUS
  0
LAYER
  2
VORLAGE_TEXT
 70
     0
 62
     7
  6
CONTINUOUS
  0
LAYER
  2
VORLAGE_BEMASSUNG
 70
     0
 62
    -5
  6
CONTINUOUS
  0
LAYER
  2
TEXT
 70
     0
 62
     7
  6
CONTINUOUS
  0
LAYER
  2
LINIEN-DICK
 70
     0
 62
     7
  6
CONTINUOUS
  0
LAYER
  2
LINIEN-NORMAL
 70
     0
 62
     7
  6
CONTINUOUS
  0
LAYER
  2
LINIEN-DÜNN
 70
     0
 62
     7
  6
CONTINUOUS
  0
LAYER
  2
TEXT-DEUTSCH
 70
     0
 62
     7
  6
CONTINUOUS
  0
LAYER
  2
TEXT-ENGLISCH
 70
     0
 62
    -7
  6
CONTINUOUS
  0
LAYER
  2
Defpoints
 70
     0
 62
     7
  6
CONTINUOUS
  0
ENDTAB
  0
TABLE
  2
STYLE
 70
     3
  0
STYLE
  2
STANDARD
 70
     0
 40
0.0
 41
1.0
 50
0.0
 71
     0
 42
2.5
  3
txt
  4

  0
STYLE
  2
SLDTEXTSTYLE0
 70
     0
 40
0.0
 41
0.605
 50
0.0
 71
     0
 42
0.2
  3
TXT
  4

  0
STYLE
  2
SLDTEXTSTYLE1
 70
     0
 40
0.0
 41
0.5629999999999999
 50
0.0
 71
     0
 42
0.2
  3
TXT
  4

  0
ENDTAB
  0
TABLE
  2
VIEW
 70
     0
  0
ENDTAB
  0
TABLE
  2
UCS
 70
     0
  0
ENDTAB
  0
TABLE
  2
APPID
 70
     3
  0
APPID
  2
ACAD
 70
     0
  0
APPID
  2
ACAD_NAV_VCDISPLAY
 70
     0
  0
APPID
  2
ACAD_MLEADERVER
 70
     0
  0
ENDTAB
  0
TABLE
  2
DIMSTYLE
 70
     8
  0
DIMSTYLE
  2
ISO-25
 70
     0
  3

  4

  5

  6

  7

 40
1.0
 41
2.5
 42
0.625
 43
3.75
 44
1.25
 45
0.0
 46
0.0
 47
0.0
 48
0.0
140
2.5
141
2.5
142
0.0
143
0.03937007874016
144
1.0
145
0.0
146
1.0
147
0.625
 71
     0
 72
     0
 73
     0
 74
     0
 75
     0
 76
     0
 77
     1
 78
     8
170
     0
171
     3
172
     1
173
     0
174
     0
175
     0
176
     0
177
     0
178
     0
  0
DIMSTYLE
  2
SLDDIMSTYLE0
 70
     0
  3

  4

  5

  6

  7

 40
1.0
 41
3.5
 42
0.0625
 43
0.38
 44
0.0
 45
0.000000001
 46
0.0
 47
0.0
 48
0.0
140
3.5
141
0.09
142
0.0
143
25.399999999999999
144
1.0
145
0.0
146
1.0
147
0.875
 71
     0
 72
     0
 73
     0
 74
     0
 75
     0
 76
     0
 77
     1
 78
    12
170
     0
171
     2
172
     0
173
     1
174
     0
175
     0
176
     0
177
     0
178
     0
  0
DIMSTYLE
  2
SLDDIMSTYLE1
 70
     0
  3

  4

  5

  6

  7

 40
1.0
 41
3.5
 42
0.0625
 43
0.38
 44
0.0
 45
0.000000001
 46
0.0
 47
0.0
 48
0.0
140
3.5
141
0.09
142
0.0
143
25.399999999999999
144
1.0
145
0.0
146
1.0
147
0.875
 71
     0
 72
     0
 73
     0
 74
     0
 75
     0
 76
     0
 77
     1
 78
    12
170
     0
171
     2
172
     0
173
     1
174
     0
175
     0
176
     0
177
     0
178
     0
  0
DIMSTYLE
  2
SLDDIMSTYLE2
 70
     0
  3

  4

  5

  6

  7

 40
1.0
 41
3.5
 42
0.0625
 43
0.38
 44
0.0
 45
0.000000001
 46
0.0
 47
0.0
 48
0.0
140
3.5
141
0.09
142
0.0
143
25.399999999999999
144
1.0
145
0.0
146
1.0
147
0.875
 71
     0
 72
     0
 73
     0
 74
     0
 75
     0
 76
     0
 77
     1
 78
    12
170
     0
171
     2
172
     0
173
     1
174
     0
175
     0
176
     0
177
     0
178
     0
  0
DIMSTYLE
  2
SLDDIMSTYLE3
 70
     0
  3
<>
  4

  5

  6

  7

 40
1.0
 41
3.5
 42
0.0625
 43
0.38
 44
0.0
 45
0.000000001
 46
0.0
 47
0.0
 48
0.0
140
3.5
141
0.09
142
0.0
143
25.399999999999999
144
1.0
145
0.0
146
1.0
147
0.875
 71
     0
 72
     0
 73
     1
 74
     1
 75
     0
 76
     0
 77
     0
 78
    12
170
     0
171
     2
172
     0
173
     1
174
     0
175
     0
176
     0
177
     0
178
     0
  0
DIMSTYLE
  2
SLDDIMSTYLE4
 70
     0
  3

  4

  5

  6

  7

 40
1.0
 41
3.5
 42
0.0625
 43
0.38
 44
0.0
 45
0.000000001
 46
0.0
 47
0.0
 48
0.0
140
0.0
141
0.09
142
0.0
143
25.399999999999999
144
1.0
145
0.0
146
3.5
147
0.0
 71
     0
 72
     0
 73
     1
 74
     1
 75
     0
 76
     0
 77
     0
 78
     0
170
     0
171
     2
172
     0
173
     1
174
     0
175
     0
176
     0
177
     0
178
     0
  0
DIMSTYLE
  2
SLDDIMSTYLE5
 70
     0
  3

  4

  5

  6

  7

 40
1.0
 41
3.5
 42
0.0625
 43
0.38
 44
0.0
 45
0.000000001
 46
0.0
 47
0.0
 48
0.0
140
3.5
141
0.09
142
0.0
143
25.399999999999999
144
1.0
145
0.0
146
1.0
147
0.875
 71
     0
 72
     0
 73
     0
 74
     0
 75
     0
 76
     0
 77
     1
 78
    12
170
     0
171
     2
172
     0
173
     1
174
     0
175
     0
176
     0
177
     0
178
     0
  0
DIMSTYLE
  2
SLDDIMSTYLE6
 70
     0
  3

  4

  5

  6

  7

 40
1.0
 41
3.5
 42
0.0625
 43
0.38
 44
0.0
 45
0.0
 46
0.0
 47
0.0
 48
0.0
140
3.5
141
0.09
142
0.0
143
25.399999999999999
144
1.0
145
0.0
146
1.0
147
0.875
 71
     0
 72
     0
 73
     0
 74
     0
 75
     0
 76
     0
 77
     1
 78
    12
170
     0
171
     2
172
     0
173
     1
174
     0
175
     0
176
     0
177
     0
178
     0
  0
ENDTAB
  0
ENDSEC
  0
SECTION
  2
BLOCKS
  0
BLOCK
  8
0
  2
$MODEL_SPACE
 70
     0
 10
0.0
 20
0.0
 30
0.0
  3
$MODEL_SPACE
  1

  0
ENDBLK
  5
21
  8
0
  0
BLOCK
 67
     1
  8
0
  2
$PAPER_SPACE
 70
     0
 10
0.0
 20
0.0
 30
0.0
  3
$PAPER_SPACE
  1

  0
ENDBLK
  5
1D
 67
     1
  8
0
  0
BLOCK
  8
0
  2
SW_NOTE_0
 70
     0
 10
0.0
 20
0.0
 30
0.0
  3
SW_NOTE_0
  1

  0
INSERT
  5
99
  8
0
  2
*U26
 10
0.0
 20
0.0
 30
0.0
  0
INSERT
  5
9A
  8
0
  2
*U27
 10
0.0
 20
0.0
 30
0.0
  0
INSERT
  5
9B
  8
0
  2
*U28
 10
0.0
 20
0.0
 30
0.0
  0
ENDBLK
  5
75
  8
0
  0
BLOCK
  8
0
  2
SW_NOTE_1
 70
     0
 10
0.0
 20
0.0
 30
0.0
  3
SW_NOTE_1
  1

  0
INSERT
  5
A0
  8
0
  2
*U29
 10
0.0
 20
0.0
 30
0.0
  0
INSERT
  5
A1
  8
0
  2
*U30
 10
0.0
 20
0.0
 30
0.0
  0
ENDBLK
  5
9F
  8
0
  0
BLOCK
  8
0
  2
SW_NOTE_2
 70
     0
 10
0.0
 20
0.0
 30
0.0
  3
SW_NOTE_2
  1

  0
INSERT
  5
C0
  8
0
  2
*U56
 10
0.0
 20
0.0
 30
0.0
  0
INSERT
  5
C1
  8
0
  2
*U57
 10
0.0
 20
0.0
 30
0.0
  0
ENDBLK
  5
BF
  8
0
  0
BLOCK
  8
0
  2
SW_TABLEANNOTATION_0
 70
     0
 10
0.0
 20
0.0
 30
0.0
  3
SW_TABLEANNOTATION_0
  1

  0
LINE
  5
CB
  8
LINIEN-DÜNN
 62
     0
 10
0.0
 20
0.0
 30
0.0
 11
0.0
 21
-21.079681700535151
 31
0.0
  0
LINE
  5
CC
  8
LINIEN-DÜNN
 62
     0
 10
0.0
 20
-21.079681700535151
 30
0.0
 11
44.532029389572479
 21
-21.079681700535151
 31
0.0
  0
LINE
  5
CD
  8
LINIEN-DÜNN
 62
     0
 10
44.532029389572479
 20
-21.079681700535151
 30
0.0
 11
44.532029389572479
 21
0.0
 31
0.0
  0
LINE
  5
CE
  8
LINIEN-DÜNN
 62
     0
 10
44.532029389572479
 20
0.0
 30
0.0
 11
0.0
 21
0.0
 31
0.0
  0
LINE
  5
CF
  8
LINIEN-DÜNN
 62
     0
 10
27.91534433171589
 20
0.0
 30
0.0
 11
27.91534433171589
 21
-21.079681700535151
 31
0.0
  0
LINE
  5
D0
  8
LINIEN-DÜNN
 62
     0
 10
0.0000000000000069
 20
-8.7313334951064228
 30
0.0
 11
44.532029389572479
 21
-8.7313334951064228
 31
0.0
  0
LINE
  5
D1
  8
LINIEN-DÜNN
 62
     0
 10
0.0000000000000069
 20
-12.847449563582661
 30
0.0
 11
44.532029389572479
 21
-12.847449563582661
 31
0.0
  0
LINE
  5
D2
  8
LINIEN-DÜNN
 62
     0
 10
0.0000000000000069
 20
-16.963565632058899
 30
0.0
 11
44.532029389572479
 21
-16.963565632058899
 31
0.0
  0
INSERT
  5
D3
  8
0
  2
*U63
 10
0.0
 20
0.0
 30
0.0
  0
INSERT
  5
D4
  8
0
  2
*U64
 10
0.0
 20
0.0
 30
0.0
  0
INSERT
  5
D5
  8
0
  2
*U65
 10
0.0
 20
0.0
 30
0.0
  0
INSERT
  5
D6
  8
0
  2
*U66
 10
0.0
 20
0.0
 30
0.0
  0
INSERT
  5
D7
  8
0
  2
*U67
 10
0.0
 20
0.0
 30
0.0
  0
INSERT
  5
D8
  8
0
  2
*U68
 10
0.0
 20
0.0
 30
0.0
  0
INSERT
  5
D9
  8
0
  2
*U69
 10
0.0
 20
0.0
 30
0.0
  0
INSERT
  5
DA
  8
0
  2
*U70
 10
0.0
 20
0.0
 30
0.0
  0
ENDBLK
  5
CA
  8
0
  0
BLOCK
  8
0
  2
*D5
 70
     1
 10
0.0
 20
0.0
 30
0.0
  3
*D5
  1

  0
SOLID
  5
10A
  8
LINIEN-DÜNN
 10
54.217717344570048
 20
228.04694619902389
 30
0.0
 11
57.717717344570048
 21
227.53694619902399
 31
0.0
 12
57.717717344570048
 22
228.556946199024
 32
0.0
 13
57.717717344570048
 23
228.556946199024
 33
0.0
  0
SOLID
  5
10B
  8
LINIEN-DÜNN
 10
89.217717344570062
 20
228.04694619902389
 30
0.0
 11
85.717717344570076
 21
228.556946199024
 31
0.0
 12
85.717717344570076
 22
227.53694619902399
 32
0.0
 13
85.717717344570076
 23
227.53694619902399
 33
0.0
  0
LINE
  5
10C
  8
LINIEN-DÜNN
 10
54.217717344570048
 20
201.04694619902389
 30
0.0
 11
54.217717344570048
 21
229.04694619902401
 31
0.0
  0
LINE
  5
10D
  8
LINIEN-DÜNN
 10
89.217717344570062
 20
201.04694619902389
 30
0.0
 11
89.217717344570062
 21
229.04694619902401
 31
0.0
  0
LINE
  5
10E
  8
LINIEN-DÜNN
 10
54.217717344570048
 20
228.04694619902389
 30
0.0
 11
89.217717344570062
 21
228.04694619902389
 31
0.0
  0
INSERT
  5
10F
  8
0
  2
*U71
 10
0.0
 20
0.0
 30
0.0
  0
ENDBLK
  5
109
  8
0
  0
BLOCK
  8
0
  2
*D6
 70
     1
 10
0.0
 20
0.0
 30
0.0
  3
*D6
  1

  0
SOLID
  5
114
  8
LINIEN-DÜNN
 10
118.8844541869999
 20
206.04694619902389
 30
0.0
 11
118.3744541869999
 21
202.54694619902389
 31
0.0
 12
119.39445418699989
 22
202.54694619902389
 32
0.0
 13
119.39445418699989
 23
202.54694619902389
 33
0.0
  0
SOLID
  5
115
  8
LINIEN-DÜNN
 10
118.8844541869999
 20
126.04694619902391
 30
0.0
 11
119.39445418699989
 21
129.54694619902381
 31
0.0
 12
118.3744541869999
 22
129.54694619902381
 32
0.0
 13
118.3744541869999
 23
129.54694619902381
 33
0.0
  0
LINE
  5
116
  8
LINIEN-DÜNN
 10
84.217717344570048
 20
206.04694619902389
 30
0.0
 11
119.8844541869999
 21
206.04694619902389
 31
0.0
  0
LINE
  5
117
  8
LINIEN-DÜNN
 10
84.217717344570062
 20
126.04694619902391
 30
0.0
 11
119.8844541869999
 21
126.04694619902391
 31
0.0
  0
LINE
  5
118
  8
LINIEN-DÜNN
 10
118.8844541869999
 20
206.04694619902389
 30
0.0
 11
118.8844541869999
 21
126.04694619902391
 31
0.0
  0
INSERT
  5
119
  8
0
  2
*U72
 10
0.0
 20
0.0
 30
0.0
  0
ENDBLK
  5
113
  8
0
  0
BLOCK
  8
0
  2
*D7
 70
     1
 10
0.0
 20
0.0
 30
0.0
  3
*D7
  1

  0
SOLID
  5
11F
  8
LINIEN-DÜNN
 10
34.217717344570033
 20
196.04694619902389
 30
0.0
 11
33.707717344570042
 21
192.54694619902389
 31
0.0
 12
34.727717344570031
 22
192.54694619902389
 32
0.0
 13
34.727717344570031
 23
192.54694619902389
 33
0.0
  0
SOLID
  5
120
  8
LINIEN-DÜNN
 10
34.217717344570033
 20
206.04694619902389
 30
0.0
 11
34.727717344570031
 21
209.54694619902381
 31
0.0
 12
33.707717344570042
 22
209.54694619902381
 32
0.0
 13
33.707717344570042
 23
209.54694619902381
 33
0.0
  0
LINE
  5
121
  8
LINIEN-DÜNN
 10
64.217717344570062
 20
196.04694619902389
 30
0.0
 11
33.21771734457004
 21
196.04694619902389
 31
0.0
  0
LINE
  5
122
  8
LINIEN-DÜNN
 10
59.217717344570048
 20
206.04694619902389
 30
0.0
 11
33.21771734457004
 21
206.04694619902389
 31
0.0
  0
LINE
  5
123
  8
LINIEN-DÜNN
 10
34.217717344570033
 20
196.04694619902389
 30
0.0
 11
34.217717344570033
 21
189.04694619902381
 31
0.0
  0
LINE
  5
124
  8
LINIEN-DÜNN
 10
34.217717344570033
 20
196.04694619902389
 30
0.0
 11
34.217717344570033
 21
206.04694619902389
 31
0.0
  0
LINE
  5
125
  8
LINIEN-DÜNN
 10
34.217717344570033
 20
206.04694619902389
 30
0.0
 11
34.217717344570033
 21
213.04694619902389
 31
0.0
  0
INSERT
  5
126
  8
0
  2
*U73
 10
0.0
 20
0.0
 30
0.0
  0
ENDBLK
  5
11E
  8
0
  0
BLOCK
  8
0
  2
*D8
 70
     1
 10
0.0
 20
0.0
 30
0.0
  3
*D8
  1

  0
SOLID
  5
12B
  8
LINIEN-DÜNN
 10
34.217717344570062
 20
196.04694619902389
 30
0.0
 11
33.707717344570071
 21
192.54694619902389
 31
0.0
 12
34.72771734457006
 22
192.54694619902389
 32
0.0
 13
34.72771734457006
 23
192.54694619902389
 33
0.0
  0
SOLID
  5
12C
  8
LINIEN-DÜNN
 10
34.217717344570062
 20
136.04694619902389
 30
0.0
 11
34.72771734457006
 21
139.54694619902389
 31
0.0
 12
33.707717344570071
 22
139.54694619902389
 32
0.0
 13
33.707717344570071
 23
139.54694619902389
 33
0.0
  0
LINE
  5
12D
  8
LINIEN-DÜNN
 10
64.217717344570062
 20
196.04694619902389
 30
0.0
 11
33.217717344570062
 21
196.04694619902389
 31
0.0
  0
LINE
  5
12E
  8
LINIEN-DÜNN
 10
64.217717344570062
 20
136.04694619902389
 30
0.0
 11
33.217717344570062
 21
136.04694619902389
 31
0.0
  0
LINE
  5
12F
  8
LINIEN-DÜNN
 10
34.217717344570062
 20
196.04694619902389
 30
0.0
 11
34.217717344570062
 21
136.04694619902389
 31
0.0
  0
INSERT
  5
130
  8
0
  2
*U74
 10
0.0
 20
0.0
 30
0.0
  0
ENDBLK
  5
12A
  8
0
  0
BLOCK
  8
0
  2
*D9
 70
     1
 10
0.0
 20
0.0
 30
0.0
  3
*D9
  1

  0
SOLID
  5
136
  8
LINIEN-DÜNN
 10
56.181032267917338
 20
127.6078952202752
 30
0.0
 11
53.448979973342951
 21
125.36156704752069
 31
0.0
 12
54.203618639730209
 22
124.6753305844897
 32
0.0
 13
54.203618639730209
 23
124.6753305844897
 33
0.0
  0
LINE
  5
137
  8
LINIEN-DÜNN
 10
56.181032267917338
 20
127.6078952202752
 30
0.0
 11
47.243120700854313
 21
117.7790766881544
 31
0.0
  0
LINE
  5
138
  8
LINIEN-DÜNN
 10
56.181032267917338
 20
127.6078952202752
 30
0.0
 11
60.217717344570048
 21
132.04694619902389
 31
0.0
  0
INSERT
  5
139
  8
0
  2
*U75
 10
0.0
 20
0.0
 30
0.0
  0
INSERT
  5
13A
  8
0
  2
*U76
 10
0.0
 20
0.0
 30
0.0
  0
ENDBLK
  5
135
  8
0
  0
BLOCK
  8
0
  2
*D10
 70
     1
 10
0.0
 20
0.0
 30
0.0
  3
*D10
  1

  0
SOLID
  5
140
  8
LINIEN-DÜNN
 10
68.346130456244893
 20
193.89464467403391
 30
0.0
 11
65.121573484524177
 21
192.44125816792919
 31
0.0
 12
65.670410373396592
 22
191.58150351140631
 32
0.0
 13
65.670410373396592
 23
191.58150351140631
 33
0.0
  0
SOLID
  5
141
  8
LINIEN-DÜNN
 10
75.089304232895216
 20
198.1992477240137
 30
0.0
 11
78.313861204615932
 21
199.65263423011839
 31
0.0
 12
77.765024315743517
 22
200.51238888664139
 32
0.0
 13
77.765024315743517
 23
200.51238888664139
 33
0.0
  0
LINE
  5
142
  8
LINIEN-DÜNN
 10
68.346130456244893
 20
193.89464467403391
 30
0.0
 11
62.445853401675869
 21
190.12811700530159
 31
0.0
  0
LINE
  5
143
  8
LINIEN-DÜNN
 10
75.089304232895216
 20
198.1992477240137
 30
0.0
 11
98.106035436022395
 21
212.89231283240889
 31
0.0
  0
LINE
  5
144
  8
LINIEN-DÜNN
 10
98.106035436022395
 20
212.89231283240889
 30
0.0
 11
157.85833969611201
 21
212.89231283240889
 31
0.0
  0
INSERT
  5
14A
  8
LINIEN-DÜNN
  2
SW_SYMBOL_HOLE_SINK
 10
117.17879574992369
 20
213.39818114417909
 30
0.0
 41
0.0045117370892019
 42
0.0045117370892019
 43
0.0045117370892019
  0
INSERT
  5
14B
  8
0
  2
*U77
 10
0.0
 20
0.0
 30
0.0
  0
TEXT
  8
LINIEN-DÜNN
  40
3.5
  5
5D5
  72
0
  71
0
 10
131.607
 20
212.854
 30
-1.50740e-012
  1
 
  7
SLDTEXTSTYLE0
  0
INSERT
  5
14D
  8
0
  2
*U78
 10
0.0
 20
0.0
 30
0.0
  0
INSERT
  5
14E
  8
0
  2
*U79
 10
0.0
 20
0.0
 30
0.0
  0
INSERT
  5
14F
  8
0
  2
*U80
 10
0.0
 20
0.0
 30
0.0
  0
INSERT
  5
150
  8
0
  2
*U81
 10
0.0
 20
0.0
 30
0.0
  0
INSERT
  5
151
  8
0
  2
*U82
 10
0.0
 20
0.0
 30
0.0
  0
INSERT
  5
152
  8
0
  2
*U83
 10
0.0
 20
0.0
 30
0.0
  0
TEXT
  8
LINIEN-DÜNN
  40
3.5
  5
5D6
  72
0
  71
0
 10
114.238
 20
218.298
 30
-1.54540e-012
  1
 
  7
SLDTEXTSTYLE0
  0
INSERT
  5
154
  8
0
  2
*U84
 10
0.0
 20
0.0
 30
0.0
  0
TEXT
  8
LINIEN-DÜNN
  40
3.5
  5
5D7
  72
0
  71
0
 10
117.698
 20
218.298
 30
-1.54540e-012
  1
 
  7
SLDTEXTSTYLE0
  0
INSERT
  5
156
  8
0
  2
*U85
 10
0.0
 20
0.0
 30
0.0
  0
ENDBLK
  5
13F
  8
0
  0
BLOCK
  8
0
  2
SW_SYMBOL_HOLE_SINK
 70
     0
 10
0.0
 20
0.0
 30
0.0
  3
SW_SYMBOL_HOLE_SINK
  1

  0
LINE
  5
148
  8
LINIEN-DÜNN
 62
     0
 10
0.0
 20
875.0
 30
0.0
 11
800.0
 21
75.0
 31
0.0
  0
LINE
  5
149
  8
LINIEN-DÜNN
 62
     0
 10
800.0
 20
75.0
 30
0.0
 11
1600.0
 21
875.0
 31
0.0
  0
ENDBLK
  5
147
  8
0
  0
BLOCK
  8
0
  2
SW_NOTE_3
 70
     0
 10
0.0
 20
0.0
 30
0.0
  3
SW_NOTE_3
  1

  0
INSERT
  5
15A
  8
0
  2
*U86
 10
0.0
 20
0.0
 30
0.0
  0
INSERT
  5
15B
  8
0
  2
*U87
 10
0.0
 20
0.0
 30
0.0
  0
ENDBLK
  5
159
  8
0
  0
BLOCK
  8
0
  2
SW_CENTERMARKSYMBOL_0
 70
     0
 10
0.0
 20
0.0
 30
0.0
  3
SW_CENTERMARKSYMBOL_0
  1

  0
LINE
  5
162
  8
LINIEN-DÜNN
 62
     0
 10
0.0
 20
0.0
 30
0.0
 11
0.0
 21
2.5000000000000022
 31
0.0
  0
LINE
  5
163
  8
LINIEN-DÜNN
 62
     0
 10
0.0
 20
0.0
 30
0.0
 11
-2.5000000000000022
 21
0.0
 31
0.0
  0
LINE
  5
164
  8
LINIEN-DÜNN
 62
     0
 10
0.0
 20
0.0
 30
0.0
 11
0.0
 21
-2.5000000000000022
 31
0.0
  0
LINE
  5
165
  8
LINIEN-DÜNN
 62
     0
 10
0.0
 20
0.0
 30
0.0
 11
2.5000000000000022
 21
0.0
 31
0.0
  0
LINE
  5
166
  8
LINIEN-DÜNN
 62
     0
 10
0.0
 20
5.0000000000000044
 30
0.0
 11
0.0
 21
6.5000000000000053
 31
0.0
  0
LINE
  5
167
  8
LINIEN-DÜNN
 62
     0
 10
-5.0000000000000044
 20
0.0
 30
0.0
 11
-6.499999999999992
 21
0.0
 31
0.0
  0
LINE
  5
168
  8
LINIEN-DÜNN
 62
     0
 10
0.0
 20
-5.0000000000000044
 30
0.0
 11
0.0
 21
-6.5000000000000053
 31
0.0
  0
LINE
  5
169
  8
LINIEN-DÜNN
 62
     0
 10
5.0000000000000044
 20
0.0
 30
0.0
 11
6.5000000000000053
 21
0.0
 31
0.0
  0
ENDBLK
  5
161
  8
0
  0
BLOCK
  8
0
  2
SW_CENTERMARKSYMBOL_1
 70
     0
 10
0.0
 20
0.0
 30
0.0
  3
SW_CENTERMARKSYMBOL_1
  1

  0
LINE
  5
16E
  8
LINIEN-DÜNN
 62
     0
 10
0.0
 20
0.0
 30
0.0
 11
0.0
 21
2.5000000000000022
 31
0.0
  0
LINE
  5
16F
  8
LINIEN-DÜNN
 62
     0
 10
0.0
 20
0.0
 30
0.0
 11
-2.5000000000000022
 21
0.0
 31
0.0
  0
LINE
  5
170
  8
LINIEN-DÜNN
 62
     0
 10
0.0
 20
0.0
 30
0.0
 11
0.0
 21
-2.5000000000000022
 31
0.0
  0
LINE
  5
171
  8
LINIEN-DÜNN
 62
     0
 10
0.0
 20
0.0
 30
0.0
 11
2.5000000000000022
 21
0.0
 31
0.0
  0
LINE
  5
172
  8
LINIEN-DÜNN
 62
     0
 10
0.0
 20
4.999999999999976
 30
0.0
 11
0.0
 21
6.5000000000000053
 31
0.0
  0
LINE
  5
173
  8
LINIEN-DÜNN
 62
     0
 10
-5.0000000000000044
 20
0.0
 30
0.0
 11
-6.5000000000000053
 21
0.0
 31
0.0
  0
LINE
  5
174
  8
LINIEN-DÜNN
 62
     0
 10
0.0
 20
-5.0000000000000044
 30
0.0
 11
0.0
 21
-6.5000000000000053
 31
0.0
  0
LINE
  5
175
  8
LINIEN-DÜNN
 62
     0
 10
4.9999999999999902
 20
0.0
 30
0.0
 11
6.5000000000000053
 21
0.0
 31
0.0
  0
ENDBLK
  5
16D
  8
0
  0
BLOCK
  8
0
  2
*D15
 70
     1
 10
0.0
 20
0.0
 30
0.0
  3
*D15
  1

  0
SOLID
  5
1DF
  8
LINIEN-DÜNN
 10
151.65533099508639
 20
154.61457190540281
 30
0.0
 11
148.84606445903711
 21
152.46559039560961
 31
0.0
 12
149.57613411811371
 22
151.7532714411407
 32
0.0
 13
149.57613411811371
 23
151.7532714411407
 33
0.0
  0
LINE
  5
1E0
  8
LINIEN-DÜNN
 10
151.65533099508639
 20
154.61457190540281
 30
0.0
 11
142.7012891746262
 21
145.43739892943569
 31
0.0
  0
LINE
  5
1E1
  8
LINIEN-DÜNN
 10
151.65533099508639
 20
154.61457190540281
 30
0.0
 11
153.05203482737841
 21
156.04608104084721
 31
0.0
  0
INSERT
  5
1E2
  8
0
  2
*U96
 10
0.0
 20
0.0
 30
0.0
  0
INSERT
  5
1E3
  8
0
  2
*U97
 10
0.0
 20
0.0
 30
0.0
  0
ENDBLK
  5
1DE
  8
0
  0
BLOCK
  8
0
  2
*D16
 70
     1
 10
0.0
 20
0.0
 30
0.0
  3
*D16
  1

  0
SOLID
  5
1E9
  8
LINIEN-DÜNN
 10
168.04308584236219
 20
180.67956700473189
 30
0.0
 11
170.40495109624629
 21
178.04675624007459
 31
0.0
 12
171.05806275200891
 22
178.83023895533199
 32
0.0
 13
171.05806275200891
 23
178.83023895533199
 33
0.0
  0
LINE
  5
1EA
  8
LINIEN-DÜNN
 10
168.04308584236219
 20
180.67956700473189
 30
0.0
 11
160.14958993652871
 21
187.25958986984509
 31
0.0
  0
LINE
  5
1EB
  8
LINIEN-DÜNN
 10
168.04308584236219
 20
180.67956700473189
 30
0.0
 11
173.41992800589301
 21
176.19742819067471
 31
0.0
  0
INSERT
  5
1EC
  8
0
  2
*U98
 10
0.0
 20
0.0
 30
0.0
  0
INSERT
  5
1ED
  8
0
  2
*U99
 10
0.0
 20
0.0
 30
0.0
  0
ENDBLK
  5
1E8
  8
0
  0
BLOCK
  8
0
  2
*D17
 70
     1
 10
0.0
 20
0.0
 30
0.0
  3
*D17
  1

  0
SOLID
  5
1F2
  8
LINIEN-DÜNN
 10
137.120673344967
 20
178.0450704267096
 30
0.0
 11
136.61067334496701
 21
174.5450704267096
 31
0.0
 12
137.63067334496691
 22
174.5450704267096
 32
0.0
 13
137.63067334496691
 23
174.5450704267096
 33
0.0
  0
SOLID
  5
1F3
  8
LINIEN-DÜNN
 10
137.120673344967
 20
154.0488219713381
 30
0.0
 11
137.63067334496691
 21
157.5488219713381
 31
0.0
 12
136.61067334496701
 22
157.5488219713381
 32
0.0
 13
136.61067334496701
 23
157.5488219713381
 33
0.0
  0
LINE
  5
1F4
  8
LINIEN-DÜNN
 10
151.94736291489261
 20
178.0450704267096
 30
0.0
 11
136.120673344967
 21
178.0450704267096
 31
0.0
  0
LINE
  5
1F5
  8
LINIEN-DÜNN
 10
151.94736291489261
 20
154.0488219713381
 30
0.0
 11
136.120673344967
 21
154.0488219713381
 31
0.0
  0
LINE
  5
1F6
  8
LINIEN-DÜNN
 10
137.120673344967
 20
178.0450704267096
 30
0.0
 11
137.120673344967
 21
154.0488219713381
 31
0.0
  0
INSERT
  5
1F7
  8
0
  2
*U100
 10
0.0
 20
0.0
 30
0.0
  0
ENDBLK
  5
1F1
  8
0
  0
BLOCK
  8
0
  2
*D18
 70
     1
 10
0.0
 20
0.0
 30
0.0
  3
*D18
  1

  0
LINE
  5
57B
  8
LINIEN-DÜNN
 62
     0
 10
177.00687909309201
 20
166.04694619902361
 30
0.0
 11
183.151250472752
 21
166.04694619902349
 31
0.0
  0
LINE
  5
57C
  8
LINIEN-DÜNN
 62
     0
 10
166.7371578289023
 20
178.76776295492141
 30
0.0
 11
182.79610573000309
 21
179.60937675204019
 31
0.0
  0
ARC
  5
57D
  8
LINIEN-DÜNN
 62
     0
 10
-75.990485469915953
 20
166.04694619902369
 30
0.0
 40
259.14173594266799
 50
358.45230061615882
 51
359.22615030807941
  0
ARC
  5
57E
  8
LINIEN-DÜNN
 62
     0
 10
-75.990485469915953
 20
166.04694619902369
 30
0.0
 40
259.14173594266799
 50
3.773849691920661
 51
4.5476993838412287
  0
SOLID
  5
57F
  8
LINIEN-DÜNN
 62
     0
 10
182.54429472651989
 20
162.55096529234029
 30
0.0
 11
183.71093479064589
 21
162.54308672095061
 31
0.0
 12
183.151250472752
 22
166.04694619902349
 32
0.0
 13
183.151250472752
 23
166.04694619902349
 33
0.0
  0
SOLID
  5
580
  8
LINIEN-DÜNN
 62
     0
 10
183.17164518366519
 20
183.13772592644469
 30
0.0
 11
182.00701629176839
 21
183.06880092901591
 31
0.0
 12
182.79610573000309
 22
179.60937675204019
 32
0.0
 13
182.79610573000309
 23
179.60937675204019
 33
0.0
  0
TEXT
  8
LINIEN-DÜNN
  40
3.5
  5
5D8
  62
0
  72
0
  71
0
 10
180.344
 20
170.278
 30
0.000000
  1
3.00%%d
  7
SLDTEXTSTYLE0
  0
POINT
  5
582
  8
Defpoints
 62
     0
 10
183.1117819311867
 20
170.5695930995584
 30
0.0
  0
POINT
  5
583
  8
Defpoints
 62
     0
 10
166.67474348298009
 20
178.76449195765619
 30
0.0
  0
POINT
  5
584
  8
Defpoints
 62
     0
 10
144.7851266781571
 20
166.04694619902361
 30
0.0
  0
POINT
  5
585
  8
Defpoints
 62
     0
 10
176.94437909309201
 20
166.04694619902361
 30
0.0
  0
POINT
  5
586
  8
Defpoints
 62
     0
 10
152.94736291489249
 20
178.0450704267096
 30
0.0
  0
ENDBLK
  5
1FC
  8
0
  0
BLOCK
  8
0
  2
SW_HATCH_0
 70
     0
 10
0.0
 20
0.0
 30
0.0
  3
SW_HATCH_0
  1

  0
LINE
  5
21E
  8
0
  6
CONTINUOUS
 62
     0
 10
0.0
 20
0.0
 30
0.0
 11
1.2500000000000011
 21
1.2500000000000011
 31
0.0
  0
LINE
  5
21F
  8
0
  6
CONTINUOUS
 62
     0
 10
4.7029077148472984
 20
0.212779654312642
 30
0.0
 11
5.740128060534615
 21
1.2499999999999589
 31
0.0
  0
LINE
  5
220
  8
0
  6
CONTINUOUS
 62
     0
 10
9.1022083699633232
 20
0.1219522488940389
 30
0.0
 11
9.6196838118261656
 21
0.6394276907568525
 31
0.0
  0
LINE
  5
221
  8
0
  6
CONTINUOUS
 62
     0
 10
9.8428493641038486
 20
-3.6275348174999018
 30
0.0
 11
11.032231899217919
 21
-2.4381522823857962
 31
0.0
  0
LINE
  5
222
  8
0
  6
CONTINUOUS
 62
     0
 10
10.06644866181087
 20
-7.8940635803273906
 30
0.0
 11
11.25583119692492
 21
-6.7046810452133112
 31
0.0
  0
LINE
  5
223
  8
0
  6
CONTINUOUS
 62
     0
 10
22.450640302672969
 20
0.0
 30
0.0
 11
23.700640302672941
 21
1.2499999999999869
 31
0.0
  0
LINE
  5
224
  8
0
  6
CONTINUOUS
 62
     0
 10
18.319827906336592
 20
-4.1308123963363448
 30
0.0
 11
19.640771034753531
 21
-2.8098692679194102
 31
0.0
  0
LINE
  5
225
  8
0
  6
CONTINUOUS
 62
     0
 10
10.29004795951789
 20
-12.1605923431551
 30
0.0
 11
11.47943049463194
 21
-10.97120980804104
 31
0.0
  0
LINE
  5
226
  8
0
  6
CONTINUOUS
 62
     0
 10
26.940768363207582
 20
0.0000000000000278
 30
0.0
 11
28.1907683632075
 21
1.2500000000000011
 31
0.0
  0
LINE
  5
227
  8
0
  6
CONTINUOUS
 62
     0
 10
18.07149572799613
 20
-8.8692726352114057
 30
0.0
 11
19.392438856413118
 21
-7.5483295067943592
 31
0.0
  0
LINE
  5
228
  8
0
  6
CONTINUOUS
 62
     0
 10
10.59177928340609
 20
-16.348989079801498
 30
0.0
 11
11.703029792338951
 21
-15.23773857086859
 31
0.0
  0
LINE
  5
229
  8
0
  6
CONTINUOUS
 62
     0
 10
31.43089642374197
 20
0.0
 30
0.0
 11
32.220384181603727
 21
0.789487757861765
 31
0.0
  0
LINE
  5
22A
  8
0
  6
CONTINUOUS
 62
     0
 10
17.82316354965576
 20
-13.60773287408618
 30
0.0
 11
19.144106678072689
 21
-12.28678974566928
 31
0.0
  0
LINE
  5
22B
  8
0
  6
CONTINUOUS
 62
     0
 10
12.81975818263836
 20
-18.611138241103699
 30
0.0
 11
13.930896423742009
 21
-17.500000000000011
 31
0.0
  0
ENDBLK
  5
21D
  8
0
  0
BLOCK
  8
0
  2
*D20
 70
     1
 10
0.0
 20
0.0
 30
0.0
  3
*D20
  1

  0
SOLID
  5
231
  8
LINIEN-DÜNN
 10
66.045453086857023
 20
263.08225858586712
 30
0.0
 11
63.476859287742357
 21
260.65071054086582
 31
0.0
 12
64.277557045150715
 22
260.01882202120328
 32
0.0
 13
64.277557045150715
 23
260.01882202120328
 33
0.0
  0
LINE
  5
232
  8
LINIEN-DÜNN
 10
66.045453086857023
 20
263.08225858586712
 30
0.0
 11
59.701209835241563
 21
255.04314854358489
 31
0.0
  0
INSERT
  5
233
  8
0
  2
*U102
 10
0.0
 20
0.0
 30
0.0
  0
INSERT
  5
234
  8
0
  2
*U103
 10
0.0
 20
0.0
 30
0.0
  0
ENDBLK
  5
230
  8
0
  0
BLOCK
  8
0
  2
*D21
 70
     1
 10
0.0
 20
0.0
 30
0.0
  3
*D21
  1

  0
SOLID
  5
239
  8
LINIEN-DÜNN
 10
74.145669623755623
 20
246.6554722553401
 30
0.0
 11
76.285760543240542
 21
243.8394270042231
 31
0.0
 12
77.000383627801938
 22
244.56724143593769
 32
0.0
 13
77.000383627801938
 23
244.56724143593769
 33
0.0
  0
LINE
  5
23A
  8
LINIEN-DÜNN
 10
74.145669623755623
 20
246.6554722553401
 30
0.0
 11
82.525524895875392
 21
238.42749852770609
 31
0.0
  0
LINE
  5
23B
  8
LINIEN-DÜNN
 10
74.145669623755623
 20
246.6554722553401
 30
0.0
 11
72.718582502746713
 21
248.05669398977409
 31
0.0
  0
INSERT
  5
23C
  8
0
  2
*U104
 10
0.0
 20
0.0
 30
0.0
  0
INSERT
  5
23D
  8
0
  2
*U105
 10
0.0
 20
0.0
 30
0.0
  0
ENDBLK
  5
238
  8
0
  0
BLOCK
  8
0
  2
*D22
 70
     1
 10
0.0
 20
0.0
 30
0.0
  3
*D22
  1

  0
SOLID
  5
242
  8
LINIEN-DÜNN
 10
68.719593116884269
 20
236.1260071518314
 30
0.0
 11
65.219593116884255
 21
236.63600715183139
 31
0.0
 12
65.219593116884255
 22
235.61600715183141
 32
0.0
 13
65.219593116884255
 23
235.61600715183141
 33
0.0
  0
SOLID
  5
243
  8
LINIEN-DÜNN
 10
74.715841572255854
 20
236.1260071518314
 30
0.0
 11
78.215841572255854
 21
235.61600715183141
 31
0.0
 12
78.215841572255854
 22
236.63600715183139
 32
0.0
 13
78.215841572255854
 23
236.63600715183139
 33
0.0
  0
LINE
  5
244
  8
LINIEN-DÜNN
 10
68.719593116884269
 20
246.95202207728829
 30
0.0
 11
68.719593116884269
 21
235.1260071518314
 31
0.0
  0
LINE
  5
245
  8
LINIEN-DÜNN
 10
74.715841572255854
 20
246.95202207728829
 30
0.0
 11
74.715841572255854
 21
235.1260071518314
 31
0.0
  0
LINE
  5
246
  8
LINIEN-DÜNN
 10
68.719593116884269
 20
236.1260071518314
 30
0.0
 11
61.719593116884283
 21
236.1260071518314
 31
0.0
  0
LINE
  5
247
  8
LINIEN-DÜNN
 10
68.719593116884269
 20
236.1260071518314
 30
0.0
 11
74.715841572255854
 21
236.1260071518314
 31
0.0
  0
LINE
  5
248
  8
LINIEN-DÜNN
 10
74.715841572255854
 20
236.1260071518314
 30
0.0
 11
81.715841572255854
 21
236.1260071518314
 31
0.0
  0
INSERT
  5
249
  8
0
  2
*U106
 10
0.0
 20
0.0
 30
0.0
  0
ENDBLK
  5
241
  8
0
  0
BLOCK
  8
0
  2
*D23
 70
     1
 10
0.0
 20
0.0
 30
0.0
  3
*D23
  1

  0
LINE
  5
59F
  8
LINIEN-DÜNN
 62
     0
 10
75.71771734457009
 20
269.79266827426608
 30
0.0
 11
75.717717344570048
 21
277.32290595275191
 31
0.0
  0
LINE
  5
5A0
  8
LINIEN-DÜNN
 62
     0
 10
71.996900588672446
 20
261.74181699129809
 30
0.0
 11
71.186548648616977
 21
277.2042531246629
 31
0.0
  0
ARC
  5
5A1
  8
LINIEN-DÜNN
 62
     0
 10
75.717717344570048
 20
190.7444038820268
 30
0.0
 40
86.578502070725037
 50
85.367235950584472
 51
87.683617975292208
  0
ARC
  5
5A2
  8
LINIEN-DÜNN
 62
     0
 10
75.717717344570048
 20
190.7444038820268
 30
0.0
 40
86.578502070725037
 50
95.316382024707764
 51
97.632764049415556
  0
SOLID
  5
5A3
  8
LINIEN-DÜNN
 62
     0
 10
79.205211450548859
 20
276.66894675024702
 30
0.0
 11
79.228793132119165
 21
277.83537506583502
 31
0.0
 12
75.717717344570048
 22
277.32290595275191
 32
0.0
 13
75.717717344570048
 23
277.32290595275191
 33
0.0
  0
SOLID
  5
5A4
  8
LINIEN-DÜNN
 62
     0
 10
67.653464107330578
 20
277.53226440785431
 30
0.0
 11
67.738059612311005
 21
276.36866881158892
 31
0.0
 12
71.186548648616977
 22
277.2042531246629
 32
0.0
 13
71.186548648616977
 23
277.2042531246629
 33
0.0
  0
TEXT
  8
LINIEN-DÜNN
  40
3.5
  5
5D9
  62
0
  72
0
  71
0
 10
62.8089
 20
275.379
 30
0.000000
  1
3.00%%d
  7
SLDTEXTSTYLE0
  0
POINT
  5
5A6
  8
Defpoints
 62
     0
 10
74.206714137700573
 20
277.30971962753409
 30
0.0
  0
POINT
  5
5A7
  8
Defpoints
 62
     0
 10
72.000171585937622
 20
261.67940264537589
 30
0.0
  0
POINT
  5
5A8
  8
Defpoints
 62
     0
 10
75.717717344570062
 20
242.25845140963389
 30
0.0
  0
POINT
  5
5A9
  8
Defpoints
 62
     0
 10
75.717717344570076
 20
269.73016827426608
 30
0.0
  0
POINT
  5
5AA
  8
Defpoints
 62
     0
 10
72.719593116884283
 20
247.95202207728829
 30
0.0
  0
ENDBLK
  5
24D
  8
0
  0
BLOCK
  8
0
  2
*D24
 70
     1
 10
0.0
 20
0.0
 30
0.0
  3
*D24
  1

  0
SOLID
  5
25A
  8
LINIEN-DÜNN
 10
49.574040245538868
 20
264.80669398977409
 30
0.0
 11
50.084040245538858
 21
268.3066939897742
 31
0.0
 12
49.06404024553887
 22
268.3066939897742
 32
0.0
 13
49.06404024553887
 23
268.3066939897742
 33
0.0
  0
SOLID
  5
25B
  8
LINIEN-DÜNN
 10
49.574040245538868
 20
244.8066939897742
 30
0.0
 11
49.06404024553887
 21
241.3066939897742
 31
0.0
 12
50.084040245538858
 22
241.3066939897742
 32
0.0
 13
50.084040245538858
 23
241.3066939897742
 33
0.0
  0
LINE
  5
25C
  8
LINIEN-DÜNN
 10
53.217717344570048
 20
264.80669398977409
 30
0.0
 11
48.57404024553886
 21
264.80669398977409
 31
0.0
  0
LINE
  5
25D
  8
LINIEN-DÜNN
 10
69.764300414729163
 20
244.8066939897742
 30
0.0
 11
48.57404024553886
 21
244.8066939897742
 31
0.0
  0
LINE
  5
25E
  8
LINIEN-DÜNN
 10
49.574040245538868
 20
264.80669398977409
 30
0.0
 11
49.574040245538868
 21
271.8066939897742
 31
0.0
  0
LINE
  5
25F
  8
LINIEN-DÜNN
 10
49.574040245538868
 20
264.80669398977409
 30
0.0
 11
49.574040245538868
 21
244.8066939897742
 31
0.0
  0
LINE
  5
260
  8
LINIEN-DÜNN
 10
49.574040245538868
 20
244.8066939897742
 30
0.0
 11
49.574040245538868
 21
237.80669398977409
 31
0.0
  0
INSERT
  5
261
  8
0
  2
*U107
 10
0.0
 20
0.0
 30
0.0
  0
ENDBLK
  5
259
  8
0
  0
BLOCK
  8
0
  2
*D25
 70
     1
 10
0.0
 20
0.0
 30
0.0
  3
*D25
  1

  0
SOLID
  5
266
  8
LINIEN-DÜNN
 10
97.479442388863475
 20
263.5566939897742
 30
0.0
 11
96.969442388863456
 21
260.0566939897742
 31
0.0
 12
97.989442388863466
 22
260.0566939897742
 32
0.0
 13
97.989442388863466
 23
260.0566939897742
 33
0.0
  0
SOLID
  5
267
  8
LINIEN-DÜNN
 10
97.479442388863475
 20
264.80669398977409
 30
0.0
 11
97.989442388863495
 21
268.3066939897742
 31
0.0
 12
96.969442388863484
 22
268.3066939897742
 32
0.0
 13
96.969442388863484
 23
268.3066939897742
 33
0.0
  0
LINE
  5
268
  8
LINIEN-DÜNN
 10
90.217717344570062
 20
263.5566939897742
 30
0.0
 11
98.479442388863475
 21
263.5566939897742
 31
0.0
  0
LINE
  5
269
  8
LINIEN-DÜNN
 10
90.217717344570076
 20
264.80669398977409
 30
0.0
 11
98.479442388863475
 21
264.80669398977409
 31
0.0
  0
LINE
  5
26A
  8
LINIEN-DÜNN
 10
97.479442388863475
 20
263.5566939897742
 30
0.0
 11
97.479442388863475
 21
256.55669398977409
 31
0.0
  0
LINE
  5
26B
  8
LINIEN-DÜNN
 10
97.479442388863475
 20
263.5566939897742
 30
0.0
 11
97.479442388863475
 21
264.80669398977409
 31
0.0
  0
LINE
  5
26C
  8
LINIEN-DÜNN
 10
97.479442388863475
 20
264.80669398977409
 30
0.0
 11
97.479442388863475
 21
277.61434316401818
 31
0.0
  0
INSERT
  5
26D
  8
0
  2
*U108
 10
0.0
 20
0.0
 30
0.0
  0
ENDBLK
  5
265
  8
0
  0
BLOCK
  8
0
  2
*U26
 70
     1
 10
0.0
 20
0.0
 30
0.0
  3
*U26
  1

  0
TEXT
  5
30A
  8
LINIEN-DÜNN
 62
     0
 10
0.0
 20
1.011737089201882
 30
0.0
 40
3.5
  1
Oberflächen geschliffen N7
 41
0.605
  7
SLDTEXTSTYLE0
  0
ENDBLK
  5
30C
  8
0
  0
BLOCK
  8
0
  2
*U27
 70
     1
 10
0.0
 20
0.0
 30
0.0
  3
*U27
  1

  0
TEXT
  5
30E
  8
LINIEN-DÜNN
 62
     0
 10
0.0
 20
-3.5090964030771681
 30
0.0
 40
3.5
  1
in Längsrichtung
 41
0.605
  7
SLDTEXTSTYLE0
  0
ENDBLK
  5
310
  8
0
  0
BLOCK
  8
0
  2
*U28
 70
     1
 10
0.0
 20
0.0
 30
0.0
  3
*U28
  1

  0
TEXT
  5
312
  8
LINIEN-DÜNN
 62
     0
 10
0.0
 20
-12.55076338763527
 30
0.0
 40
3.5
  1
Material: Edelstahl 1.4301
 41
0.605
  7
SLDTEXTSTYLE0
  0
ENDBLK
  5
314
  8
0
  0
BLOCK
  8
0
  2
*U29
 70
     1
 10
0.0
 20
0.0
 30
0.0
  3
*U29
  1

  0
TEXT
  5
316
  8
LINIEN-DÜNN
 62
     0
 10
0.0
 20
1.0117370892018771
 30
0.0
 40
3.5
  1
Bodenmulde Planet BM 5x13 schmal
 41
0.605
  7
SLDTEXTSTYLE0
  0
ENDBLK
  5
318
  8
0
  0
BLOCK
  8
0
  2
*U30
 70
     1
 10
0.0
 20
0.0
 30
0.0
  3
*U30
  1

  0
TEXT
  5
31A
  8
LINIEN-DÜNN
 62
     0
 10
20.586801692843441
 20
-3.5090964030771761
 30
0.0
 40
3.5
  1
Darstellung Typ 0
 41
0.605
  7
SLDTEXTSTYLE0
  0
ENDBLK
  5
31C
  8
0
  0
BLOCK
  8
0
  2
*U31
 70
     1
 10
0.0
 20
0.0
 30
0.0
  3
*U31
  1

  0
TEXT
  5
31E
  8
VORLAGE_TEXT
 10
19.309380392192899
 20
31.52368978558474
 30
0.0
 40
2.0
  1
Rohmass:
 41
0.605
  7
SLDTEXTSTYLE0
  0
ENDBLK
  5
320
  8
0
  0
BLOCK
  8
0
  2
*U32
 70
     1
 10
0.0
 20
0.0
 30
0.0
  3
*U32
  1

  0
TEXT
  5
322
  8
TEXT
 10
68.270019238133756
 20
36.457859022376972
 30
0.0
 40
2.5
  1
1.4301 (X5CrNi18-10)
 41
0.605
  7
SLDTEXTSTYLE0
  0
ENDBLK
  5
324
  8
0
  0
BLOCK
  8
0
  2
*U33
 70
     1
 10
0.0
 20
0.0
 30
0.0
  3
*U33
  1

  0
TEXT
  5
326
  8
VORLAGE_TEXT
 10
189.31073577479921
 20
47.260240175864197
 30
0.0
 40
2.0
  1
mm
 41
0.605
  7
SLDTEXTSTYLE0
  0
ENDBLK
  5
328
  8
0
  0
BLOCK
  8
0
  2
*U34
 70
     1
 10
0.0
 20
0.0
 30
0.0
  3
*U34
  1

  0
TEXT
  5
32A
  8
VORLAGE_TEXT
 10
151.6093056155789
 20
26.51652003115947
 30
0.0
 40
2.0
  1
Artikel-Nr.
 41
0.605
  7
SLDTEXTSTYLE0
  0
ENDBLK
  5
32C
  8
0
  0
BLOCK
  8
0
  2
*U35
 70
     1
 10
0.0
 20
0.0
 30
0.0
  3
*U35
  1

  0
TEXT
  5
32E
  8
VORLAGE_TEXT
 10
112.020352513548
 20
41.502400962945671
 30
0.0
 40
2.0
  1
Geändert
 41
0.605
  7
SLDTEXTSTYLE0
  0
ENDBLK
  5
330
  8
0
  0
BLOCK
  8
0
  2
*U36
 70
     1
 10
0.0
 20
0.0
 30
0.0
  3
*U36
  1

  0
TEXT
  5
332
  8
VORLAGE_TEXT
 10
111.7614967989804
 20
31.525377080505461
 30
0.0
 40
2.0
  1
Status:
 41
0.605
  7
SLDTEXTSTYLE0
  0
ENDBLK
  5
334
  8
0
  0
BLOCK
  8
0
  2
*U37
 70
     1
 10
0.0
 20
0.0
 30
0.0
  3
*U37
  1

  0
TEXT
  5
336
  8
VORLAGE_TEXT
 10
52.194329317388757
 20
36.517225029626822
 30
0.0
 40
2.0
  1
Material:
 41
0.605
  7
SLDTEXTSTYLE0
  0
ENDBLK
  5
338
  8
0
  0
BLOCK
  8
0
  2
*U38
 70
     1
 10
0.0
 20
0.0
 30
0.0
  3
*U38
  1

  0
TEXT
  5
33A
  8
VORLAGE_TEXT
 10
19.311450101977851
 20
36.495506687794062
 30
0.0
 40
2.0
  1
Gewicht:
 41
0.605
  7
SLDTEXTSTYLE0
  0
ENDBLK
  5
33C
  8
0
  0
BLOCK
  8
0
  2
*U39
 70
     1
 10
0.0
 20
0.0
 30
0.0
  3
*U39
  1

  0
TEXT
  5
33E
  8
TEXT
 10
32.005230465757947
 20
36.426136784639112
 30
0.0
 40
2.5
  1
35.8 g
 41
0.605
  7
SLDTEXTSTYLE0
  0
ENDBLK
  5
340
  8
0
  0
BLOCK
  8
0
  2
*U40
 70
     1
 10
0.0
 20
0.0
 30
0.0
  3
*U40
  1

  0
TEXT
  5
342
  8
VORLAGE_TEXT
 10
52.226003491047003
 20
31.50133908605364
 30
0.0
 40
2.0
  1
Behandlung:
 41
0.605
  7
SLDTEXTSTYLE0
  0
ENDBLK
  5
344
  8
0
  0
BLOCK
  8
0
  2
*U41
 70
     1
 10
0.0
 20
0.0
 30
0.0
  3
*U41
  1

  0
TEXT
  5
346
  8
VORLAGE_TEXT
 10
19.28203931839473
 20
46.495970597247421
 30
0.0
 40
2.0
  1
Klassifizierung:
 41
0.605
  7
SLDTEXTSTYLE0
  0
ENDBLK
  5
348
  8
0
  0
BLOCK
  8
0
  2
*U42
 70
     1
 10
0.0
 20
0.0
 30
0.0
  3
*U42
  1

  0
TEXT
  5
34A
  8
VORLAGE_TEXT
 10
52.220741653649043
 20
46.505473021986859
 30
0.0
 40
2.0
  1
Änderung:
 41
0.605
  7
SLDTEXTSTYLE0
  0
ENDBLK
  5
34C
  8
0
  0
BLOCK
  8
0
  2
*U43
 70
     1
 10
0.0
 20
0.0
 30
0.0
  3
*U43
  1

  0
TEXT
  5
34E
  8
TEXT
 10
171.61171919171159
 20
31.632220981029882
 30
0.0
 40
3.5
  1
A4
 41
0.605
  7
SLDTEXTSTYLE0
  0
ENDBLK
  5
350
  8
0
  0
BLOCK
  8
0
  2
*U44
 70
     1
 10
0.0
 20
0.0
 30
0.0
  3
*U44
  1

  0
TEXT
  5
352
  8
VORLAGE_TEXT
 10
189.29330066470911
 20
21.946908787568809
 30
0.0
 40
2.0
  1
Index
 41
0.605
  7
SLDTEXTSTYLE0
  0
ENDBLK
  5
354
  8
0
  0
BLOCK
  8
0
  2
*U45
 70
     1
 10
0.0
 20
0.0
 30
0.0
  3
*U45
  1

  0
TEXT
  5
356
  8
TEXT
 10
186.8606144351597
 20
31.63900724387382
 30
0.0
 40
3.5
  1
2 / 2
 41
0.5629999999999999
  7
SLDTEXTSTYLE1
  0
ENDBLK
  5
358
  8
0
  0
BLOCK
  8
0
  2
*U46
 70
     1
 10
0.0
 20
0.0
 30
0.0
  3
*U46
  1

  0
TEXT
  5
35A
  8
VORLAGE_TEXT
 10
185.07987876940251
 20
37.017304510823983
 30
0.0
 40
2.0
  1
Blatt / Anz.
 41
0.605
  7
SLDTEXTSTYLE0
  0
ENDBLK
  5
35C
  8
0
  0
BLOCK
  8
0
  2
*U47
 70
     1
 10
0.0
 20
0.0
 30
0.0
  3
*U47
  1

  0
TEXT
  5
35E
  8
VORLAGE_TEXT
 10
52.224998485070337
 20
26.8008232309171
 30
0.0
 40
2.0
  1
Benennung:
 41
0.605
  7
SLDTEXTSTYLE0
  0
ENDBLK
  5
360
  8
0
  0
BLOCK
  8
0
  2
*U48
 70
     1
 10
0.0
 20
0.0
 30
0.0
  3
*U48
  1

  0
TEXT
  5
362
  8
VORLAGE_TEXT
 10
151.57388881247101
 20
21.51907636275833
 30
0.0
 40
2.0
  1
Zeichnungs-Nr.
 41
0.605
  7
SLDTEXTSTYLE0
  0
ENDBLK
  5
364
  8
0
  0
BLOCK
  8
0
  2
*U49
 70
     1
 10
0.0
 20
0.0
 30
0.0
  3
*U49
  1

  0
TEXT
  5
366
  8
VORLAGE_TEXT
 10
168.80500542804191
 20
47.003865285264183
 30
0.0
 40
2.0
  1
Massstab
 41
0.605
  7
SLDTEXTSTYLE0
  0
ENDBLK
  5
368
  8
0
  0
BLOCK
  8
0
  2
*U50
 70
     1
 10
0.0
 20
0.0
 30
0.0
  3
*U50
  1

  0
TEXT
  5
36A
  8
TEXT
 10
171.45268611228519
 20
41.778742679842729
 30
0.0
 40
3.5
  1
1:1
 41
0.605
  7
SLDTEXTSTYLE0
  0
ENDBLK
  5
36C
  8
0
  0
BLOCK
  8
0
  2
*U51
 70
     1
 10
0.0
 20
0.0
 30
0.0
  3
*U51
  1

  0
TEXT
  5
36E
  8
VORLAGE_TEXT
 10
111.9937631722054
 20
46.526330870401793
 30
0.0
 40
2.0
  1
Erstellt/Gez.
 41
0.605
  7
SLDTEXTSTYLE0
  0
ENDBLK
  5
370
  8
0
  0
BLOCK
  8
0
  2
*U52
 70
     1
 10
0.0
 20
0.0
 30
0.0
  3
*U52
  1

  0
TEXT
  5
372
  8
VORLAGE_TEXT
 10
112.00771417549041
 20
36.528616321881863
 30
0.0
 40
2.0
  1
Geprüft/Freig.
 41
0.605
  7
SLDTEXTSTYLE0
  0
ENDBLK
  5
374
  8
0
  0
BLOCK
  8
0
  2
*U53
 70
     1
 10
0.0
 20
0.0
 30
0.0
  3
*U53
  1

  0
TEXT
  5
376
  8
VORLAGE_TEXT
 10
203.0575164332522
 20
10.00037679321837
 30
0.0
 40
2.0
  1
CAD-System: SolidWorks
 50
90.000000000000185
 41
0.605
  7
SLDTEXTSTYLE0
  0
ENDBLK
  5
378
  8
0
  0
BLOCK
  8
0
  2
*U54
 70
     1
 10
0.0
 20
0.0
 30
0.0
  3
*U54
  1

  0
TEXT
  5
37A
  8
TEXT
 10
166.52024551372921
 20
5.5945543798745394
 30
0.0
 40
2.5
  1
Plotdatum: 02.11.2009
 41
0.605
  7
SLDTEXTSTYLE0
  0
ENDBLK
  5
37C
  8
0
  0
BLOCK
  8
0
  2
*U55
 70
     1
 10
0.0
 20
0.0
 30
0.0
  3
*U55
  1

  0
TEXT
  5
37E
  8
VORLAGE_TEXT
 10
170.30328314142389
 20
37.235881088637079
 30
0.0
 40
2.0
  1
Format
 41
0.605
  7
SLDTEXTSTYLE0
  0
ENDBLK
  5
380
  8
0
  0
BLOCK
  8
0
  2
*U56
 70
     1
 10
0.0
 20
0.0
 30
0.0
  3
*U56
  1

  0
TEXT
  5
382
  8
VORLAGE_TEXT
 62
     0
 10
-0.5781354795439313
 20
0.000000000000007
 30
0.0
 40
2.0
  1
Dieses Dokument ist unser geistiges Eigentum. Es darf ohne unsere ausdrückliche Genehmigung weder kopiert, vervielfältigt oder verwertet,
 50
90.000000000000185
 41
0.605
  7
SLDTEXTSTYLE0
  0
ENDBLK
  5
384
  8
0
  0
BLOCK
  8
0
  2
*U57
 70
     1
 10
0.0
 20
0.0
 30
0.0
  3
*U57
  1

  0
TEXT
  5
386
  8
VORLAGE_TEXT
 62
     0
 10
2.4559709585385572
 20
0.0000000000000071
 30
0.0
 40
2.0
  1
noch an Dritte weitergegeben werden. Zuwiderhandlung ist strafbar und wird gerichtlich verfolgt.  Copyright reserved!   
 50
90.000000000000185
 41
0.605
  7
SLDTEXTSTYLE0
  0
TEXT
  5
387
  8
VORLAGE_TEXT
 62
     0
 10
2.4559709585380869
 20
134.511666666667
 30
0.0
 40
2.0
  1
©  
 50
90.000000000000185
 41
0.605
  7
SLDTEXTSTYLE0
  0
TEXT
  5
388
  8
VORLAGE_TEXT
 62
     0
 10
2.4559709585380798
 20
136.6964347430654
 30
0.0
 40
2.0
  1
Planet GDZ AG
 50
90.000000000000185
 41
0.605
  7
SLDTEXTSTYLE0
  0
ENDBLK
  5
38A
  8
0
  0
BLOCK
  8
0
  2
*U58
 70
     1
 10
0.0
 20
0.0
 30
0.0
  3
*U58
  1

  0
TEXT
  5
38C
  8
LINIEN-DÜNN
 10
26.167551157725391
 20
13.494765353552451
 30
0.0
 40
1.5
  1
Neustadtstrasse 2
 41
0.605
  7
SLDTEXTSTYLE0
  0
ENDBLK
  5
38E
  8
0
  0
BLOCK
  8
0
  2
*U59
 70
     1
 10
0.0
 20
0.0
 30
0.0
  3
*U59
  1

  0
TEXT
  5
390
  8
0
 62
     7
 10
27.337345833663719
 20
15.989987787568859
 30
0.0
 40
1.5
  1
Planet GDZ AG
 41
0.605
  7
SLDTEXTSTYLE0
  0
ENDBLK
  5
392
  8
0
  0
BLOCK
  8
0
  2
*U60
 70
     1
 10
0.0
 20
0.0
 30
0.0
  3
*U60
  1

  0
TEXT
  5
394
  8
LINIEN-DÜNN
 10
24.320054943540359
 20
10.99650982892938
 30
0.0
 40
1.5
  1
CH - 8317 Tagelswangen
 41
0.605
  7
SLDTEXTSTYLE0
  0
ENDBLK
  5
396
  8
0
  0
BLOCK
  8
0
  2
*U61
 70
     1
 10
0.0
 20
0.0
 30
0.0
  3
*U61
  1

  0
TEXT
  5
398
  8
LINIEN-DÜNN
 10
129.52402540034271
 20
45.441854914183629
 30
0.0
 40
3.5
  1
02/11/09
 41
0.605
  7
SLDTEXTSTYLE0
  0
ENDBLK
  5
39A
  8
0
  0
BLOCK
  8
0
  2
*U62
 70
     1
 10
0.0
 20
0.0
 30
0.0
  3
*U62
  1

  0
TEXT
  5
39C
  8
LINIEN-DÜNN
 10
149.59646402472339
 20
45.441854914183637
 30
0.0
 40
3.5
  1
Schaar
 41
0.605
  7
SLDTEXTSTYLE0
  0
ENDBLK
  5
39E
  8
0
  0
BLOCK
  8
0
  2
*U63
 70
     1
 10
0.0
 20
0.0
 30
0.0
  3
*U63
  1

  0
TEXT
  5
3A0
  8
LINIEN-DÜNN
 62
     0
 10
8.5201718566588482
 20
-5.7226274969830584
 30
-0.0000000000006387
 40
2.5
  1
Art. Nr.
 41
0.605
  7
SLDTEXTSTYLE0
  0
ENDBLK
  5
3A2
  8
0
  0
BLOCK
  8
0
  2
*U64
 70
     1
 10
0.0
 20
0.0
 30
0.0
  3
*U64
  1

  0
TEXT
  5
3A4
  8
LINIEN-DÜNN
 62
     0
 10
30.402506330751741
 20
-5.7226274969830566
 30
-0.0000000000006387
 40
2.5
  1
Mass C
 41
0.605
  7
SLDTEXTSTYLE0
  0
ENDBLK
  5
3A6
  8
0
  0
BLOCK
  8
0
  2
*U65
 70
     1
 10
0.0
 20
0.0
 30
0.0
  3
*U65
  1

  0
TEXT
  5
3A8
  8
LINIEN-DÜNN
 62
     0
 10
6.7024634873143754
 20
-12.14635227877439
 30
-0.0000000000006387
 40
2.5
  1
900345-0
 41
0.605
  7
SLDTEXTSTYLE0
  0
ENDBLK
  5
3AA
  8
0
  0
BLOCK
  8
0
  2
*U66
 70
     1
 10
0.0
 20
0.0
 30
0.0
  3
*U66
  1

  0
TEXT
  5
3AC
  8
LINIEN-DÜNN
 62
     0
 10
31.930283738070099
 20
-12.14635227877439
 30
-0.0000000000006387
 40
2.5
  1
0 mm
 41
0.605
  7
SLDTEXTSTYLE0
  0
ENDBLK
  5
3AE
  8
0
  0
BLOCK
  8
0
  2
*U67
 70
     1
 10
0.0
 20
0.0
 30
0.0
  3
*U67
  1

  0
TEXT
  5
3B0
  8
LINIEN-DÜNN
 62
     0
 10
6.7024634873143754
 20
-16.262468347250628
 30
-0.0000000000006387
 40
2.5
  1
900345-2
 41
0.605
  7
SLDTEXTSTYLE0
  0
ENDBLK
  5
3B2
  8
0
  0
BLOCK
  8
0
  2
*U68
 70
     1
 10
0.0
 20
0.0
 30
0.0
  3
*U68
  1

  0
TEXT
  5
3B4
  8
LINIEN-DÜNN
 62
     0
 10
31.930283738070099
 20
-16.262468347250628
 30
-0.0000000000006387
 40
2.5
  1
2 mm
 41
0.605
  7
SLDTEXTSTYLE0
  0
ENDBLK
  5
3B6
  8
0
  0
BLOCK
  8
0
  2
*U69
 70
     1
 10
0.0
 20
0.0
 30
0.0
  3
*U69
  1

  0
TEXT
  5
3B8
  8
LINIEN-DÜNN
 62
     0
 10
6.7024634873143754
 20
-20.37858441572687
 30
-0.0000000000006387
 40
2.5
  1
900345-4
 41
0.605
  7
SLDTEXTSTYLE0
  0
ENDBLK
  5
3BA
  8
0
  0
BLOCK
  8
0
  2
*U70
 70
     1
 10
0.0
 20
0.0
 30
0.0
  3
*U70
  1

  0
TEXT
  5
3BC
  8
LINIEN-DÜNN
 62
     0
 10
31.930283738070099
 20
-20.37858441572687
 30
-0.0000000000006387
 40
2.5
  1
4 mm
 41
0.605
  7
SLDTEXTSTYLE0
  0
ENDBLK
  5
3BE
  8
0
  0
BLOCK
  8
0
  2
*U71
 70
     1
 10
0.0
 20
0.0
 30
0.0
  3
*U71
  1

  0
TEXT
  5
3C0
  8
LINIEN-DÜNN
 10
69.525477770579016
 20
229.05868305539511
 30
-0.0000000000016132
 40
3.5
  1
35
 41
0.605
  7
SLDTEXTSTYLE0
  0
ENDBLK
  5
3C2
  8
0
  0
BLOCK
  8
0
  2
*U72
 70
     1
 10
0.0
 20
0.0
 30
0.0
  3
*U72
  1

  0
TEXT
  5
3C4
  8
LINIEN-DÜNN
 10
117.8727173306286
 20
163.8547066250328
 30
-0.0000000000011649
 40
3.5
  1
80
 50
90.000000000000398
 41
0.605
  7
SLDTEXTSTYLE0
  0
ENDBLK
  5
3C6
  8
0
  0
BLOCK
  8
0
  2
*U73
 70
     1
 10
0.0
 20
0.0
 30
0.0
  3
*U73
  1

  0
TEXT
  5
3C8
  8
LINIEN-DÜNN
 10
33.205980488198797
 20
198.85470662503269
 30
-0.0000000000014093
 40
3.5
  1
10
 50
90.0
 41
0.605
  7
SLDTEXTSTYLE0
  0
ENDBLK
  5
3CA
  8
0
  0
BLOCK
  8
0
  2
*U74
 70
     1
 10
0.0
 20
0.0
 30
0.0
  3
*U74
  1

  0
TEXT
  5
3CC
  8
LINIEN-DÜNN
 10
33.205980488198847
 20
163.85470662503269
 30
-0.0000000000011649
 40
3.5
  1
60
 50
90.000000000000398
 41
0.605
  7
SLDTEXTSTYLE0
  0
ENDBLK
  5
3CE
  8
0
  0
BLOCK
  8
0
  2
*U75
 70
     1
 10
0.0
 20
0.0
 30
0.0
  3
*U75
  1

  0
TEXT
  5
3D0
  8
LINIEN-DÜNN
 10
47.593314639292352
 20
119.6063540484741
 30
-0.0000000000008512
 40
3.5
  1
R
 50
47.717943639247338
 41
0.605
  7
SLDTEXTSTYLE0
  0
ENDBLK
  5
3D2
  8
0
  0
BLOCK
  8
0
  2
*U76
 70
     1
 10
0.0
 20
0.0
 30
0.0
  3
*U76
  1

  0
TEXT
  5
3D4
  8
LINIEN-DÜNN
 10
49.505767958893252
 20
121.7094355668435
 30
-0.0000000000008659
 40
3.5
  1
6
 50
47.717943639247338
 41
0.605
  7
SLDTEXTSTYLE0
  0
ENDBLK
  5
3D6
  8
0
  0
BLOCK
  8
0
  2
*U77
 70
     1
 10
0.0
 20
0.0
 30
0.0
  3
*U77
  1

  0
TEXT
  5
3D9
  8
LINIEN-DÜNN
 10
126.43435120829059
 20
213.90404968878011
 30
-0.0000000000015074
 40
3.5
  1
\U+2205
 41
0.605
  7
SLDTEXTSTYLE0
  0
ENDBLK
  5
3DB
  8
0
  0
BLOCK
  8
0
  2
*U78
 70
     1
 10
0.0
 20
0.0
 30
0.0
  3
*U78
  1

  0
TEXT
  5
3DD
  8
LINIEN-DÜNN
 10
132.70277265575331
 20
213.90404968878011
 30
-0.0000000000015074
 40
3.5
  1
8
 41
0.605
  7
SLDTEXTSTYLE0
  0
ENDBLK
  5
3DF
  8
0
  0
BLOCK
  8
0
  2
*U79
 70
     1
 10
0.0
 20
0.0
 30
0.0
  3
*U79
  1

  0
TEXT
  5
3E1
  8
LINIEN-DÜNN
 10
135.0665197409551
 20
213.90404968878011
 30
-0.0000000000015074
 40
3.5
  1
 X
 41
0.605
  7
SLDTEXTSTYLE0
  0
ENDBLK
  5
3E3
  8
0
  0
BLOCK
  8
0
  2
*U80
 70
     1
 10
0.0
 20
0.0
 30
0.0
  3
*U80
  1

  0
TEXT
  5
3E5
  8
LINIEN-DÜNN
 10
139.89250337324211
 20
213.90404968878011
 30
-0.0000000000015074
 40
3.5
  1
90°
 41
0.605
  7
SLDTEXTSTYLE0
  0
ENDBLK
  5
3E7
  8
0
  0
BLOCK
  8
0
  2
*U81
 70
     1
 10
0.0
 20
0.0
 30
0.0
  3
*U81
  1

  0
TEXT
  5
3E9
  8
LINIEN-DÜNN
 10
102.53103543602229
 20
219.348139599094
 30
-0.0000000000015454
 40
3.5
  1
2
 41
0.605
  7
SLDTEXTSTYLE0
  0
ENDBLK
  5
3EB
  8
0
  0
BLOCK
  8
0
  2
*U82
 70
     1
 10
0.0
 20
0.0
 30
0.0
  3
*U82
  1

  0
TEXT
  5
3ED
  8
LINIEN-DÜNN
 10
104.8947825212241
 20
219.348139599094
 30
-0.0000000000015454
 40
3.5
  1
 x
 41
0.605
  7
SLDTEXTSTYLE0
  0
ENDBLK
  5
3EF
  8
0
  0
BLOCK
  8
0
  2
*U83
 70
     1
 10
0.0
 20
0.0
 30
0.0
  3
*U83
  1

  0
TEXT
  5
3F1
  8
LINIEN-DÜNN
 10
109.065615676737
 20
219.348139599094
 30
-0.0000000000015454
 40
3.5
  1
\U+2205
 41
0.605
  7
SLDTEXTSTYLE0
  0
ENDBLK
  5
3F3
  8
0
  0
BLOCK
  8
0
  2
*U84
 70
     1
 10
0.0
 20
0.0
 30
0.0
  3
*U84
  1

  0
TEXT
  5
3F5
  8
LINIEN-DÜNN
 10
115.3346654808654
 20
219.348139599094
 30
-0.0000000000015454
 40
3.5
  1
5
 41
0.605
  7
SLDTEXTSTYLE0
  0
ENDBLK
  5
3F7
  8
0
  0
BLOCK
  8
0
  2
*U85
 70
     1
 10
0.0
 20
0.0
 30
0.0
  3
*U85
  1

  0
TEXT
  5
3F9
  8
LINIEN-DÜNN
 10
118.7953814001479
 20
219.348139599094
 30
-0.0000000000015454
 40
3.5
  1
DURCHGANGSLOCH
 41
0.605
  7
SLDTEXTSTYLE0
  0
ENDBLK
  5
3FB
  8
0
  0
BLOCK
  8
0
  2
*U86
 70
     1
 10
0.0
 20
0.0
 30
0.0
  3
*U86
  1

  0
TEXT
  5
3FD
  8
LINIEN-DÜNN
 62
     0
 10
0.5032203543161723
 20
-1.757633740145061
 30
0.0
 40
3.5
  1
Mass C: Versatz der Mulde
 41
0.605
  7
SLDTEXTSTYLE0
  0
ENDBLK
  5
3FF
  8
0
  0
BLOCK
  8
0
  2
*U87
 70
     1
 10
0.0
 20
0.0
 30
0.0
  3
*U87
  1

  0
TEXT
  5
401
  8
LINIEN-DÜNN
 62
     0
 10
0.5032203543161723
 20
-6.2784672324241138
 30
0.0
 40
3.5
  1
 von der Mittelllinie
 41
0.605
  7
SLDTEXTSTYLE0
  0
ENDBLK
  5
403
  8
0
  0
BLOCK
  8
0
  2
*U88
 70
     1
 10
0.0
 20
0.0
 30
0.0
  3
*U88
  1

  0
SOLID
  5
405
  8
LINIEN-DÜNN
 10
73.073652738287151
 20
147.2669592945075
 30
0.0
 11
71.676621682829321
 21
150.52864321663489
 31
0.0
 12
74.055980980303715
 22
147.8963576866629
 32
0.0
 13
74.055980980303715
 23
147.8963576866629
 33
0.0
  0
POLYLINE
  5
406
  8
LINIEN-DÜNN
 66
     1
 10
0.0
 20
0.0
 30
0.0
  0
VERTEX
  5
407
  8
LINIEN-DÜNN
 10
73.564816859295433
 20
147.5816584905852
 30
0.0
  0
VERTEX
  5
408
  8
LINIEN-DÜNN
 10
96.721030605381145
 20
111.4407928251121
 30
0.0
  0
SEQEND
  5
409
  8
LINIEN-DÜNN
  0
ENDBLK
  5
40B
  8
0
  0
BLOCK
  8
0
  2
*U89
 70
     1
 10
0.0
 20
0.0
 30
0.0
  3
*U89
  1

  0
TEXT
  5
40D
  8
0
 62
     7
 10
59.67284276224764
 20
214.96815117624101
 30
0.0
 40
5.0
  1
B
 41
0.605
  7
SLDTEXTSTYLE0
  0
ENDBLK
  5
40F
  8
0
  0
BLOCK
  8
0
  2
*U90
 70
     1
 10
0.0
 20
0.0
 30
0.0
  3
*U90
  1

  0
TEXT
  5
411
  8
0
 62
     7
 10
59.67284276224764
 20
118.4674227636103
 30
0.0
 40
5.0
  1
B
 41
0.605
  7
SLDTEXTSTYLE0
  0
ENDBLK
  5
413
  8
0
  0
BLOCK
  8
0
  2
*U91
 70
     1
 10
0.0
 20
0.0
 30
0.0
  3
*U91
  1

  0
TEXT
  5
415
  8
0
 62
     7
 10
47.17491671194427
 20
156.71553947256649
 30
0.0
 40
5.0
  1
A
 41
0.605
  7
SLDTEXTSTYLE0
  0
ENDBLK
  5
417
  8
0
  0
BLOCK
  8
0
  2
*U92
 70
     1
 10
0.0
 20
0.0
 30
0.0
  3
*U92
  1

  0
TEXT
  5
419
  8
0
 62
     7
 10
95.696649702017282
 20
156.71553947256649
 30
0.0
 40
5.0
  1
A
 41
0.605
  7
SLDTEXTSTYLE0
  0
ENDBLK
  5
41B
  8
0
  0
BLOCK
  8
0
  2
*X93
 70
     1
 10
0.0
 20
0.0
 30
0.0
  3
*X93
  1

  0
LINE
  5
547
  8
0
 62
     0
 10
168.55203482737841
 20
141.61126646417091
 30
0.0
 11
169.80203482737841
 21
142.861266464171
 31
0.0
  0
LINE
  5
548
  8
0
 62
     0
 10
168.55203482737841
 20
146.10139452470551
 30
0.0
 11
169.80203482737841
 21
147.3513945247056
 31
0.0
  0
LINE
  5
549
  8
0
 62
     0
 10
168.4990771731058
 20
150.53856493096751
 30
0.0
 11
169.45915909833789
 21
151.4986468561996
 31
0.0
  0
LINE
  5
54A
  8
0
 62
     0
 10
165.60417529100999
 20
152.1337911094063
 30
0.0
 11
166.79158011891741
 21
153.32119593731369
 31
0.0
  0
LINE
  5
54B
  8
0
 62
     0
 10
161.3376465281824
 20
152.3573904071132
 30
0.0
 11
162.52702906329651
 21
153.54677294222731
 31
0.0
  0
LINE
  5
54C
  8
0
 62
     0
 10
157.07111776535481
 20
152.5809897048203
 30
0.0
 11
158.260500300469
 21
153.77037223993429
 31
0.0
  0
LINE
  5
54D
  8
0
 62
     0
 10
152.8067655069938
 20
152.8067655069938
 30
0.0
 11
153.99397153764139
 21
153.9939715376413
 31
0.0
  0
LINE
  5
54E
  8
0
 62
     0
 10
150.14284826637581
 20
154.6329763269103
 30
0.0
 11
151.10381276055091
 21
155.5939408210854
 31
0.0
  0
LINE
  5
54F
  8
0
 62
     0
 10
149.80203482737841
 20
158.78229094844761
 30
0.0
 11
151.05203482737841
 21
160.0322909484475
 31
0.0
  0
LINE
  5
550
  8
0
 62
     0
 10
165.2177499822495
 20
178.68813416385319
 30
0.0
 11
166.5386931106664
 21
180.00907729227009
 31
0.0
  0
LINE
  5
551
  8
0
 62
     0
 10
168.55203482737841
 20
182.0224190089821
 30
0.0
 11
169.80203482737841
 21
183.2724190089821
 31
0.0
  0
LINE
  5
552
  8
0
 62
     0
 10
149.80203482737841
 20
163.2724190089821
 30
0.0
 11
151.05203482737841
 21
164.5224190089821
 31
0.0
  0
LINE
  5
553
  8
0
 62
     0
 10
160.47928974337449
 20
178.4398019855127
 30
0.0
 11
161.80023287179139
 21
179.76074511392969
 31
0.0
  0
LINE
  5
554
  8
0
 62
     0
 10
168.55203482737841
 20
186.5125470695167
 30
0.0
 11
169.80203482737841
 21
187.7625470695167
 31
0.0
  0
LINE
  5
555
  8
0
 62
     0
 10
149.80203482737841
 20
167.7625470695167
 30
0.0
 11
151.05203482737841
 21
169.0125470695167
 31
0.0
  0
LINE
  5
556
  8
0
 62
     0
 10
155.74082950449949
 20
178.1914698071723
 30
0.0
 11
157.06177263291639
 21
179.51241293558931
 31
0.0
  0
LINE
  5
557
  8
0
 62
     0
 10
168.55203482737841
 20
191.0026751300513
 30
0.0
 11
169.6992995373248
 21
192.1499398399977
 31
0.0
  0
LINE
  5
558
  8
0
 62
     0
 10
149.80203482737841
 20
172.2526751300513
 30
0.0
 11
151.05203482737841
 21
173.5026751300513
 31
0.0
  0
LINE
  5
559
  8
0
 62
     0
 10
149.91476608962441
 20
176.85553445283179
 30
0.0
 11
152.24686350341139
 21
179.1876318666188
 31
0.0
  0
ENDBLK
  5
55B
  8
0
  0
BLOCK
  8
0
  2
*X94
 70
     1
 10
0.0
 20
0.0
 30
0.0
  3
*X94
  1

  0
LINE
  5
55D
  8
0
 62
     0
 10
168.55203482737841
 20
199.98293125112039
 30
0.0
 11
169.80203482737841
 21
201.2329312511205
 31
0.0
  0
LINE
  5
55E
  8
0
 62
     0
 10
168.55203482737841
 20
204.47305931165499
 30
0.0
 11
169.80203482737841
 21
205.72305931165511
 31
0.0
  0
ENDBLK
  5
560
  8
0
  0
BLOCK
  8
0
  2
*X95
 70
     1
 10
0.0
 20
0.0
 30
0.0
  3
*X95
  1

  0
LINE
  5
562
  8
0
 62
     0
 10
168.55203482737841
 20
128.14088228256719
 30
0.0
 11
169.80203482737841
 21
129.39088228256719
 31
0.0
  0
LINE
  5
563
  8
0
 62
     0
 10
168.55203482737841
 20
132.63101034310179
 30
0.0
 11
168.88516593375169
 21
132.96414144947511
 31
0.0
  0
ENDBLK
  5
565
  8
0
  0
BLOCK
  8
0
  2
*U96
 70
     1
 10
0.0
 20
0.0
 30
0.0
  3
*U96
  1

  0
TEXT
  5
567
  8
LINIEN-DÜNN
 10
143.14243237498121
 20
147.2249206001795
 30
-0.0000000000010439
 40
3.5
  1
R
 50
45.705072897305563
 41
0.605
  7
SLDTEXTSTYLE0
  0
ENDBLK
  5
569
  8
0
  0
BLOCK
  8
0
  2
*U97
 70
     1
 10
0.0
 20
0.0
 30
0.0
  3
*U97
  1

  0
TEXT
  5
56B
  8
LINIEN-DÜNN
 10
145.12757426480721
 20
149.2595314351594
 30
-0.0000000000010581
 40
3.5
  1
2
 50
45.705072897305563
 41
0.605
  7
SLDTEXTSTYLE0
  0
ENDBLK
  5
56D
  8
0
  0
BLOCK
  8
0
  2
*U98
 70
     1
 10
0.0
 20
0.0
 30
0.0
  3
*U98
  1

  0
TEXT
  5
56F
  8
LINIEN-DÜNN
 10
162.00741112024591
 20
186.9558331153994
 30
-0.000000000001321
 40
3.5
  1
R
 50
318.2042559162125
 41
0.605
  7
SLDTEXTSTYLE0
  0
ENDBLK
  5
571
  8
0
  0
BLOCK
  8
0
  2
*U99
 70
     1
 10
0.0
 20
0.0
 30
0.0
  3
*U99
  1

  0
TEXT
  5
573
  8
LINIEN-DÜNN
 10
164.1266491156444
 20
185.06129890050141
 30
-0.0000000000013077
 40
3.5
  1
2
 50
318.2042559162125
 41
0.605
  7
SLDTEXTSTYLE0
  0
ENDBLK
  5
575
  8
0
  0
BLOCK
  8
0
  2
*U100
 70
     1
 10
0.0
 20
0.0
 30
0.0
  3
*U100
  1

  0
TEXT
  5
577
  8
LINIEN-DÜNN
 10
136.1089364885957
 20
163.8547066250328
 30
-0.0000000000011649
 40
3.5
  1
24
 50
90.000000000000398
 41
0.605
  7
SLDTEXTSTYLE0
  0
ENDBLK
  5
579
  8
0
  0
BLOCK
  8
0
  2
*U101
 70
     1
 10
0.0
 20
0.0
 30
0.0
  3
*U101
  1

  0
TEXT
  5
588
  8
LINIEN-DÜNN
 10
154.43557320998841
 20
136.2215493475162
 30
0.0
 40
3.5
  1
B-B
 41
0.605
  7
SLDTEXTSTYLE0
  0
ENDBLK
  5
58A
  8
0
  0
BLOCK
  8
0
  2
*U102
 70
     1
 10
0.0
 20
0.0
 30
0.0
  3
*U102
  1

  0
TEXT
  5
58C
  8
LINIEN-DÜNN
 10
59.956040268631391
 20
256.90831051155379
 30
-0.0000000000018102
 40
3.5
  1
R
 50
49.710096919057143
 41
0.605
  7
SLDTEXTSTYLE0
  0
ENDBLK
  5
58E
  8
0
  0
BLOCK
  8
0
  2
*U103
 70
     1
 10
0.0
 20
0.0
 30
0.0
  3
*U103
  1

  0
TEXT
  5
590
  8
LINIEN-DÜNN
 10
61.794229054088269
 20
259.07660282616001
 30
-0.0000000000018253
 40
3.5
  1
2
 50
49.710096919057143
 41
0.605
  7
SLDTEXTSTYLE0
  0
ENDBLK
  5
592
  8
0
  0
BLOCK
  8
0
  2
*U104
 70
     1
 10
0.0
 20
0.0
 30
0.0
  3
*U104
  1

  0
TEXT
  5
594
  8
LINIEN-DÜNN
 10
78.443170206653264
 20
243.71961344395669
 30
-0.0000000000017176
 40
3.5
  1
R
 50
315.52396546817459
 41
0.605
  7
SLDTEXTSTYLE0
  0
ENDBLK
  5
596
  8
0
  0
BLOCK
  8
0
  2
*U105
 70
     1
 10
0.0
 20
0.0
 30
0.0
  3
*U105
  1

  0
TEXT
  5
598
  8
LINIEN-DÜNN
 10
80.471496011199093
 20
241.7280502380371
 30
-0.0000000000017037
 40
3.5
  1
2
 50
315.52396546817459
 41
0.605
  7
SLDTEXTSTYLE0
  0
ENDBLK
  5
59A
  8
0
  0
BLOCK
  8
0
  2
*U106
 70
     1
 10
0.0
 20
0.0
 30
0.0
  3
*U106
  1

  0
TEXT
  5
59C
  8
LINIEN-DÜNN
 10
70.622446604659757
 20
237.1377440082025
 30
-0.0000000000016696
 40
3.5
  1
6
 41
0.605
  7
SLDTEXTSTYLE0
  0
ENDBLK
  5
59E
  8
0
  0
BLOCK
  8
0
  2
*U107
 70
     1
 10
0.0
 20
0.0
 30
0.0
  3
*U107
  1

  0
TEXT
  5
5AC
  8
LINIEN-DÜNN
 10
48.562303389167617
 20
252.61445441578289
 30
-0.0000000000017847
 40
3.5
  1
20
 50
90.000000000000398
 41
0.605
  7
SLDTEXTSTYLE0
  0
ENDBLK
  5
5AE
  8
0
  0
BLOCK
  8
0
  2
*U108
 70
     1
 10
0.0
 20
0.0
 30
0.0
  3
*U108
  1

  0
TEXT
  5
5B0
  8
LINIEN-DÜNN
 10
96.467705532492261
 20
268.35145751379378
 30
-0.0000000000018946
 40
3.5
  1
1.25
 50
89.999999999999844
 41
0.605
  7
SLDTEXTSTYLE0
  0
ENDBLK
  5
5B2
  8
0
  0
BLOCK
  8
0
  2
*U109
 70
     1
 10
0.0
 20
0.0
 30
0.0
  3
*U109
  1

  0
TEXT
  5
5B4
  8
LINIEN-DÜNN
 10
87.961715023861714
 20
250.139649720645
 30
0.0
 40
3.5
  1
A-A
 41
0.605
  7
SLDTEXTSTYLE0
  0
ENDBLK
  5
5B6
  8
0
  0
ENDSEC
  0
SECTION
  2
ENTITIES
  0
LINE
  5
48
  8
LINIEN-DÜNN
 10
111.0
 20
44.99999999999995
 30
0.0
 11
165.99999999999989
 21
44.99999999999995
 31
0.0
  0
LINE
  5
49
  8
LINIEN-NORMAL
 10
18.000000000000011
 20
39.999999999999979
 30
0.0
 11
111.0
 21
39.999999999999979
 31
0.0
  0
LINE
  5
4A
  8
LINIEN-NORMAL
 10
149.0
 20
9.9999999999999822
 30
0.0
 11
149.0
 21
29.999999999999972
 31
0.0
  0
LINE
  5
4B
  8
LINIEN-DÜNN
 10
18.000000000000011
 20
34.999999999999922
 30
0.0
 11
111.0
 21
34.999999999999922
 31
0.0
  0
LINE
  5
4C
  8
VORLAGE_BEMASSUNG
 10
18.000000000000011
 20
17.415807170098891
 30
0.0
 11
51.000000000000071
 21
17.415807170098891
 31
0.0
  0
LINE
  5
4D
  8
LINIEN-DÜNN
 10
13.0
 20
148.5
 30
0.0
 11
0.0
 21
148.5
 31
0.0
  0
LINE
  5
4E
  8
LINIEN-DÜNN
  6
CENTERX2
 10
184.99999999999989
 20
43.99999999999995
 30
0.0
 11
198.0
 21
43.99999999999995
 31
0.0
  0
LINE
  5
4F
  8
LINIEN-DÜNN
 10
195.25
 20
46.749999999999957
 30
0.0
 11
195.25
 21
41.24999999999995
 31
0.0
  0
LINE
  5
50
  8
LINIEN-DÜNN
 10
185.5
 20
45.19999999999996
 30
0.0
 11
190.30000000000001
 21
46.24999999999995
 31
0.0
  0
LINE
  5
51
  8
LINIEN-DÜNN
 10
190.30000000000001
 20
46.24999999999995
 30
0.0
 11
190.30000000000001
 21
41.749999999999957
 31
0.0
  0
LINE
  5
52
  8
LINIEN-DÜNN
 10
190.30000000000001
 20
41.749999999999957
 30
0.0
 11
185.5
 21
42.79999999999994
 31
0.0
  0
LINE
  5
53
  8
LINIEN-DÜNN
 10
185.5
 20
42.79999999999994
 30
0.0
 11
185.5
 21
45.19999999999996
 31
0.0
  0
LINE
  5
54
  8
LINIEN-DÜNN
 10
149.0
 20
49.999999999999929
 30
0.0
 11
149.0
 21
34.999999999999922
 31
0.0
  0
LINE
  5
55
  8
LINIEN-DÜNN
 10
129.0
 20
49.999999999999929
 30
0.0
 11
129.0
 21
34.999999999999922
 31
0.0
  0
LINE
  5
56
  8
LINIEN-DÜNN
 10
111.0
 20
39.999999999999979
 30
0.0
 11
165.99999999999989
 21
39.99999999999995
 31
0.0
  0
LINE
  5
57
  8
LINIEN-NORMAL
 10
165.99999999999989
 20
49.999999999999929
 30
0.0
 11
165.99999999999989
 21
29.999999999999972
 31
0.0
  0
LINE
  5
58
  8
LINIEN-NORMAL
 10
111.0
 20
34.999999999999922
 30
0.0
 11
165.99999999999989
 21
34.999999999999922
 31
0.0
  0
LINE
  5
59
  8
LINIEN-NORMAL
 10
51.000000000000071
 20
49.999999999999957
 30
0.0
 11
51.000000000000071
 21
29.999999999999972
 31
0.0
  0
LINE
  5
5A
  8
LINIEN-DICK
 10
18.000000000000011
 20
287.0
 30
0.0
 11
18.00000000000005
 21
10.0
 31
0.0
  0
LINE
  5
5B
  8
LINIEN-DICK
 10
200.0
 20
287.0
 30
0.0
 11
18.000000000000011
 21
287.0
 31
0.0
  0
LINE
  5
5C
  8
LINIEN-DICK
 10
200.0
 20
10.0
 30
0.0
 11
200.0
 21
287.0
 31
0.0
  0
LINE
  5
5D
  8
LINIEN-DICK
 10
18.00000000000005
 20
10.0
 30
0.0
 11
200.0
 21
10.0
 31
0.0
  0
LINE
  5
5E
  8
LINIEN-NORMAL
 10
200.0
 20
24.999999999999972
 30
0.0
 11
149.0
 21
24.999999999999972
 31
0.0
  0
LINE
  5
5F
  8
LINIEN-NORMAL
 10
200.0
 20
29.999999999999972
 30
0.0
 11
18.000000000000011
 21
29.99999999999995
 31
0.0
  0
LINE
  5
60
  8
LINIEN-DÜNN
 10
184.99999999999989
 20
9.9999999999999822
 30
0.0
 11
184.99999999999989
 21
14.999999999999959
 31
0.0
  0
LINE
  5
61
  8
LINIEN-NORMAL
 10
111.0
 20
49.999999999999929
 30
0.0
 11
111.0
 21
29.999999999999972
 31
0.0
  0
LINE
  5
62
  8
LINIEN-NORMAL
 10
165.99999999999989
 20
39.99999999999995
 30
0.0
 11
200.0
 21
39.99999999999995
 31
0.0
  0
LINE
  5
63
  8
LINIEN-NORMAL
 10
51.000000000000071
 20
29.999999999999972
 30
0.0
 11
51.000000000000071
 21
9.9999999999999822
 31
0.0
  0
LINE
  5
64
  8
LINIEN-DICK
 10
18.000000000000011
 20
49.999999999999929
 30
0.0
 11
200.0
 21
49.999999999999957
 31
0.0
  0
LINE
  5
65
  8
LINIEN-DÜNN
 10
210.0
 20
4.9999999999999778
 30
0.0
 11
210.0
 21
-0.000000000000026
 31
0.0
  0
LINE
  5
66
  8
LINIEN-DÜNN
 10
210.0
 20
-0.000000000000026
 30
0.0
 11
205.0
 21
-0.000000000000026
 31
0.0
  0
LINE
  5
67
  8
LINIEN-NORMAL
 10
183.0
 20
49.999999999999929
 30
0.0
 11
183.0
 21
29.999999999999972
 31
0.0
  0
LINE
  5
68
  8
LINIEN-DÜNN
 10
0.0
 20
5.0
 30
0.0
 11
0.0000000000000555
 21
0.0
 31
0.0
  0
LINE
  5
69
  8
LINIEN-DÜNN
 10
0.0000000000000555
 20
0.0
 30
0.0
 11
5.0000000000000533
 21
0.0
 31
0.0
  0
LINE
  5
6A
  8
LINIEN-DÜNN
 10
-0.0000000000000327
 20
292.00000000000011
 30
0.0
 11
-0.0000000000000327
 21
297.0
 31
0.0
  0
LINE
  5
6B
  8
LINIEN-DÜNN
 10
-0.0000000000000327
 20
297.0
 30
0.0
 11
4.9999999999999671
 21
297.0
 31
0.0
  0
LINE
  5
6C
  8
LINIEN-DÜNN
 10
205.0
 20
297.00000000000011
 30
0.0
 11
210.0
 21
297.0
 31
0.0
  0
LINE
  5
6D
  8
LINIEN-DÜNN
 10
210.0
 20
297.0
 30
0.0
 11
210.0
 21
292.00000000000011
 31
0.0
  0
LINE
  5
6E
  8
LINIEN-DÜNN
 10
210.0
 20
5.0
 30
0.0
 11
210.0
 21
0.0
 31
0.0
  0
LINE
  5
6F
  8
LINIEN-DÜNN
 10
210.0
 20
0.0
 30
0.0
 11
205.0
 21
-0.0000000000000006
 31
0.0
  0
CIRCLE
  5
70
  8
LINIEN-DÜNN
 10
195.25
 20
43.99999999999995
 30
0.0
 40
2.249999999999917
  0
CIRCLE
  5
71
  8
LINIEN-DÜNN
 10
195.25
 20
43.99999999999995
 30
0.0
 40
1.1999999999999531
  0
POINT
  5
72
  8
VORLAGE_BEMASSUNG
 10
0.0000000000000528
 20
0.0
 30
0.0
  0
INSERT
  5
9C
  8
LINIEN-DÜNN
  2
SW_NOTE_0
 10
121.3296283447234
 20
257.21948278249067
 30
0.0
  0
INSERT
  5
A2
  8
LINIEN-DÜNN
  2
SW_NOTE_1
 10
60.662889788724698
 20
18.652392919428411
 30
0.0
  0
INSERT
  5
A3
  8
0
  2
*U31
 10
0.0
 20
0.0
 30
0.0
  0
INSERT
  5
A4
  8
0
  2
*U32
 10
0.0
 20
0.0
 30
0.0
  0
INSERT
  5
A5
  8
0
  2
*U33
 10
0.0
 20
0.0
 30
0.0
  0
INSERT
  5
A6
  8
0
  2
*U34
 10
0.0
 20
0.0
 30
0.0
  0
INSERT
  5
A7
  8
0
  2
*U35
 10
0.0
 20
0.0
 30
0.0
  0
INSERT
  5
A8
  8
0
  2
*U36
 10
0.0
 20
0.0
 30
0.0
  0
INSERT
  5
A9
  8
0
  2
*U37
 10
0.0
 20
0.0
 30
0.0
  0
INSERT
  5
AA
  8
0
  2
*U38
 10
0.0
 20
0.0
 30
0.0
  0
INSERT
  5
AB
  8
0
  2
*U39
 10
0.0
 20
0.0
 30
0.0
  0
INSERT
  5
AC
  8
0
  2
*U40
 10
0.0
 20
0.0
 30
0.0
  0
INSERT
  5
AD
  8
0
  2
*U41
 10
0.0
 20
0.0
 30
0.0
  0
INSERT
  5
AE
  8
0
  2
*U42
 10
0.0
 20
0.0
 30
0.0
  0
INSERT
  5
AF
  8
0
  2
*U43
 10
0.0
 20
0.0
 30
0.0
  0
INSERT
  5
B0
  8
0
  2
*U44
 10
0.0
 20
0.0
 30
0.0
  0
INSERT
  5
B2
  8
0
  2
*U45
 10
0.0
 20
0.0
 30
0.0
  0
INSERT
  5
B3
  8
0
  2
*U46
 10
0.0
 20
0.0
 30
0.0
  0
INSERT
  5
B4
  8
0
  2
*U47
 10
0.0
 20
0.0
 30
0.0
  0
INSERT
  5
B5
  8
0
  2
*U48
 10
0.0
 20
0.0
 30
0.0
  0
INSERT
  5
B6
  8
0
  2
*U49
 10
0.0
 20
0.0
 30
0.0
  0
INSERT
  5
B7
  8
0
  2
*U50
 10
0.0
 20
0.0
 30
0.0
  0
INSERT
  5
B8
  8
0
  2
*U51
 10
0.0
 20
0.0
 30
0.0
  0
INSERT
  5
B9
  8
0
  2
*U52
 10
0.0
 20
0.0
 30
0.0
  0
INSERT
  5
BA
  8
0
  2
*U53
 10
0.0
 20
0.0
 30
0.0
  0
INSERT
  5
BB
  8
0
  2
*U54
 10
0.0
 20
0.0
 30
0.0
  0
INSERT
  5
BC
  8
0
  2
*U55
 10
0.0
 20
0.0
 30
0.0
  0
INSERT
  5
C2
  8
VORLAGE_TEXT
  2
SW_NOTE_2
 10
13.137612181699939
 20
149.6148628795799
 30
0.0
  0
INSERT
  5
C3
  8
0
  2
*U58
 10
0.0
 20
0.0
 30
0.0
  0
INSERT
  5
C4
  8
0
  2
*U59
 10
0.0
 20
0.0
 30
0.0
  0
INSERT
  5
C5
  8
0
  2
*U60
 10
0.0
 20
0.0
 30
0.0
  0
INSERT
  5
C6
  8
0
  2
*U61
 10
0.0
 20
0.0
 30
0.0
  0
INSERT
  5
C7
  8
0
  2
*U62
 10
0.0
 20
0.0
 30
0.0
  0
INSERT
  5
DB
  8
LINIEN-DÜNN
  2
SW_TABLEANNOTATION_0
 10
51.947859874004607
 20
104.7782775493251
 30
0.0
  0
CIRCLE
  5
DC
  8
0
  6
CONTINUOUS
 62
     7
 10
71.717717344570048
 20
196.04694619902389
 30
0.0
 40
4.0000000000000284
  0
LINE
  5
DD
  8
0
  6
CONTINUOUS
 62
     7
 10
54.217717344570048
 20
200.04694619902389
 30
0.0
 11
54.217717344570062
 21
132.04694619902381
 31
0.0
  0
ARC
  5
DE
  8
0
  6
CONTINUOUS
 62
     7
 10
60.21771734457004
 20
200.04694619902389
 30
0.0
 40
6.0
 50
90.0
 51
180.0
  0
LINE
  5
DF
  8
0
  6
CONTINUOUS
 62
     7
 10
83.217717344570048
 20
206.04694619902389
 30
0.0
 11
60.21771734457004
 21
206.04694619902389
 31
0.0
  0
ARC
  5
E0
  8
0
  6
CONTINUOUS
 62
     7
 10
83.217717344570048
 20
200.04694619902389
 30
0.0
 40
6.0000000000000142
 50
0.0
 51
90.0
  0
LINE
  5
E1
  8
0
  6
CONTINUOUS
 62
     7
 10
89.217717344570062
 20
132.04694619902381
 30
0.0
 11
89.217717344570062
 21
200.04694619902389
 31
0.0
  0
ARC
  5
E2
  8
0
  6
CONTINUOUS
 62
     7
 10
83.217717344570076
 20
132.04694619902381
 30
0.0
 40
6.0
 50
270.0000000000008
 51
0.0
  0
LINE
  5
E3
  8
0
  6
CONTINUOUS
 62
     7
 10
60.217717344570048
 20
126.04694619902391
 30
0.0
 11
83.217717344570076
 21
126.04694619902391
 31
0.0
  0
ARC
  5
E4
  8
0
  6
CONTINUOUS
 62
     7
 10
60.217717344570048
 20
132.04694619902381
 30
0.0
 40
5.999999999999992
 50
180.0
 51
270.0000000000008
  0
CIRCLE
  5
E5
  8
0
  6
CONTINUOUS
 62
     7
 10
71.717717344570062
 20
136.04694619902389
 30
0.0
 40
4.0
  0
LINE
  5
E6
  8
0
  6
CONTINUOUS
 62
     7
 10
64.704694121247542
 20
182.0599694223464
 30
0.0
 11
68.000171585937636
 21
178.7644919576563
 31
0.0
  0
LINE
  5
E7
  8
0
  6
CONTINUOUS
 62
     7
 10
64.704694121247542
 20
150.0339229757013
 30
0.0
 11
68.000171585937636
 21
153.3294004403914
 31
0.0
  0
LINE
  5
E8
  8
0
  6
CONTINUOUS
 62
     7
 10
75.435263103202502
 20
178.7644919576563
 30
0.0
 11
78.730740567892582
 21
182.0599694223464
 31
0.0
  0
CIRCLE
  5
E9
  8
0
  6
CONTINUOUS
 62
     7
 10
71.717717344570062
 20
136.04694619902389
 30
0.0
 40
2.75
  0
LINE
  5
EA
  8
0
  6
CONTINUOUS
 62
     7
 10
75.435263103202487
 20
153.3294004403914
 30
0.0
 11
78.730740567892582
 21
150.0339229757013
 31
0.0
  0
CIRCLE
  5
EB
  8
0
  6
CONTINUOUS
 62
     7
 10
71.717717344570048
 20
196.04694619902389
 30
0.0
 40
2.750000000000028
  0
LINE
  5
EC
  8
0
  6
CONTINUOUS
 62
     7
 10
74.715841572255854
 20
178.0450704267096
 30
0.0
 11
75.435263103202502
 21
178.7644919576563
 31
0.0
  0
LINE
  5
ED
  8
0
  6
CONTINUOUS
 62
     7
 10
68.719593116884269
 20
178.0450704267096
 30
0.0
 11
68.000171585937636
 21
178.7644919576563
 31
0.0
  0
LINE
  5
EE
  8
0
  6
CONTINUOUS
 62
     7
 10
74.715841572255854
 20
154.0488219713381
 30
0.0
 11
75.435263103202487
 21
153.3294004403914
 31
0.0
  0
LINE
  5
EF
  8
0
  6
CONTINUOUS
 62
     7
 10
68.719593116884269
 20
154.0488219713381
 30
0.0
 11
68.000171585937636
 21
153.3294004403914
 31
0.0
  0
LINE
  5
F0
  8
0
  6
CONTINUOUS
 62
     7
 10
70.716852186393425
 20
156.04608104084721
 30
0.0
 11
68.719593116884269
 21
154.0488219713381
 31
0.0
  0
LINE
  5
F1
  8
0
  6
CONTINUOUS
 62
     7
 10
70.716852186393425
 20
176.04781135720049
 30
0.0
 11
68.719593116884269
 21
178.0450704267096
 31
0.0
  0
LINE
  5
F2
  8
0
  6
CONTINUOUS
 62
     7
 10
74.715841572255854
 20
154.0488219713381
 30
0.0
 11
72.718582502746713
 21
156.04608104084721
 31
0.0
  0
LINE
  5
F3
  8
0
  6
CONTINUOUS
 62
     7
 10
74.715841572255854
 20
178.0450704267096
 30
0.0
 11
72.718582502746713
 21
176.04781135720049
 31
0.0
  0
LINE
  5
F4
  8
0
  6
CONTINUOUS
 62
     8
 10
78.730740567892582
 20
150.0339229757013
 30
0.0
 11
64.704694121247542
 21
150.0339229757013
 31
0.0
  0
LINE
  5
F5
  8
0
  6
CONTINUOUS
 62
     8
 10
78.730740567892582
 20
182.0599694223464
 30
0.0
 11
78.730740567892582
 21
150.0339229757013
 31
0.0
  0
LINE
  5
F6
  8
0
  6
CONTINUOUS
 62
     8
 10
64.704694121247542
 20
182.0599694223464
 30
0.0
 11
78.730740567892582
 21
182.0599694223464
 31
0.0
  0
LINE
  5
F7
  8
0
  6
CONTINUOUS
 62
     8
 10
64.704694121247542
 20
150.0339229757013
 30
0.0
 11
64.704694121247542
 21
182.0599694223464
 31
0.0
  0
LINE
  5
F8
  8
0
  6
CONTINUOUS
 62
     8
 10
68.000171585937636
 20
178.7644919576563
 30
0.0
 11
68.000171585937636
 21
153.3294004403914
 31
0.0
  0
LINE
  5
F9
  8
0
  6
CONTINUOUS
 62
     8
 10
75.435263103202502
 20
178.7644919576563
 30
0.0
 11
68.000171585937636
 21
178.7644919576563
 31
0.0
  0
LINE
  5
FA
  8
0
  6
CONTINUOUS
 62
     8
 10
68.000171585937636
 20
153.3294004403914
 30
0.0
 11
75.435263103202487
 21
153.3294004403914
 31
0.0
  0
LINE
  5
FB
  8
0
  6
CONTINUOUS
 62
     8
 10
75.435263103202487
 20
153.3294004403914
 30
0.0
 11
75.435263103202502
 21
178.7644919576563
 31
0.0
  0
LINE
  5
FC
  8
0
  6
CONTINUOUS
 62
     8
 10
68.719593116884269
 20
178.0450704267096
 30
0.0
 11
74.715841572255854
 21
178.0450704267096
 31
0.0
  0
LINE
  5
FD
  8
0
  6
CONTINUOUS
 62
     8
 10
74.715841572255854
 20
178.0450704267096
 30
0.0
 11
74.715841572255854
 21
154.0488219713381
 31
0.0
  0
LINE
  5
FE
  8
0
  6
CONTINUOUS
 62
     8
 10
74.715841572255854
 20
154.0488219713381
 30
0.0
 11
68.719593116884269
 21
154.0488219713381
 31
0.0
  0
LINE
  5
FF
  8
0
  6
CONTINUOUS
 62
     8
 10
68.719593116884269
 20
154.0488219713381
 30
0.0
 11
68.719593116884269
 21
178.0450704267096
 31
0.0
  0
LINE
  5
100
  8
0
  6
CONTINUOUS
 62
     8
 10
70.716852186393425
 20
176.04781135720049
 30
0.0
 11
70.716852186393425
 21
156.04608104084721
 31
0.0
  0
LINE
  5
101
  8
0
  6
CONTINUOUS
 62
     8
 10
72.718582502746713
 20
156.04608104084721
 30
0.0
 11
72.718582502746713
 21
176.04781135720049
 31
0.0
  0
LINE
  5
102
  8
0
  6
CONTINUOUS
 62
     8
 10
72.718582502746713
 20
176.04781135720049
 30
0.0
 11
70.716852186393425
 21
176.04781135720049
 31
0.0
  0
LINE
  5
103
  8
0
  6
CONTINUOUS
 62
     8
 10
70.716852186393425
 20
156.04608104084721
 30
0.0
 11
72.718582502746713
 21
156.04608104084721
 31
0.0
  0
LINE
  5
104
  8
LINIEN-DÜNN
 10
71.676621682829307
 20
214.29955790269841
 30
0.0
 11
71.676621682829321
 21
109.5157491496001
 31
0.0
  0
DIMENSION
  5
105
  8
LINIEN-DÜNN
  2
*D5
 10
89.217717344570062
 20
228.04694619902401
 30
0.0
 11
71.717717344570048
 21
228.04694619902401
 31
0.0
 70
   128
 13
54.217717344570048
 23
200.04694619902389
 33
0.0
 14
89.217717344570062
 24
200.04694619902389
 34
0.0
  0
DIMENSION
  5
110
  8
LINIEN-DÜNN
  2
*D6
 10
118.8844541869999
 20
126.04694619902391
 30
0.0
 11
118.8844541869999
 21
166.04694619902389
 31
0.0
 70
   128
 13
83.217717344570048
 23
206.04694619902389
 33
0.0
 14
83.217717344570076
 24
126.04694619902391
 34
0.0
 50
90.000000000000185
  0
DIMENSION
  5
11A
  8
LINIEN-DÜNN
  2
*D7
 10
34.217717344570048
 20
206.04694619902389
 30
0.0
 11
34.217717344570048
 21
201.04694619902389
 31
0.0
 70
   128
 13
65.217717344570062
 23
196.04694619902389
 33
0.0
 14
60.217717344570048
 24
206.04694619902389
 34
0.0
 50
90.000000000000185
  0
DIMENSION
  5
127
  8
LINIEN-DÜNN
  2
*D8
 10
34.217717344570083
 20
136.04694619902389
 30
0.0
 11
34.217717344570083
 21
166.04694619902389
 31
0.0
 70
   128
 13
65.217717344570062
 23
196.04694619902389
 33
0.0
 14
65.217717344570062
 24
136.04694619902389
 34
0.0
 50
90.000000000000185
  0
DIMENSION
  5
131
  8
LINIEN-DÜNN
  2
*D9
 10
60.217717344570048
 20
132.04694619902389
 30
0.0
 11
49.846274892050083
 21
120.6417052849297
 31
0.0
 70
   132
  1
<>
 15
56.181032267917338
 25
127.6078952202752
 35
0.0
 40
0.0
  0
DIMENSION
  5
13B
  8
LINIEN-DÜNN
  2
*D10
 10
75.089304232895216
 20
198.1992477240137
 30
0.0
 11
128.60718756606721
 21
218.3364027427229
 31
0.0
 70
   131
  1
<> x %%c 5 DURCHGANGSLOCH\P{\fGDT;w}%%c 8 X 90°\P
 15
68.346130456244893
 25
193.89464467403391
 35
0.0
 40
0.0
  0
INSERT
  5
15C
  8
LINIEN-DÜNN
  2
SW_NOTE_3
 10
96.721030605381145
 20
111.4407928251121
 30
0.0
  0
INSERT
  5
15E
  8
0
  2
*U88
 10
0.0
 20
0.0
 30
0.0
  0
INSERT
  5
16A
  8
LINIEN-DÜNN
  2
SW_CENTERMARKSYMBOL_0
 10
71.717717344570048
 20
196.04694619902389
 30
0.0
  0
INSERT
  5
176
  8
LINIEN-DÜNN
  2
SW_CENTERMARKSYMBOL_1
 10
71.717717344570062
 20
136.04694619902389
 30
0.0
  0
LINE
  5
177
  8
0
  6
CENTER
 62
     7
 10
71.67284276224764
 20
214.29955790269841
 30
0.0
 11
71.67284276224764
 21
113.7988294900677
 31
0.0
  0
LINE
  5
178
  8
0
  6
CONTINUOUS
 62
     7
 10
59.67284276224764
 20
212.29955790269841
 30
0.0
 11
71.67284276224764
 21
212.29955790269841
 31
0.0
  0
SOLID
  5
179
  8
0
  6
CONTINUOUS
 62
     7
 10
71.67284276224764
 20
212.29955790269841
 30
0.0
 11
65.67284276224764
 21
213.79955790269841
 31
0.0
 12
65.67284276224764
 22
210.79955790269841
 32
0.0
 13
65.67284276224764
 23
210.79955790269841
 33
0.0
  0
LINE
  5
17A
  8
0
  6
CONTINUOUS
 62
     7
 10
62.158446519341403
 20
115.7988294900677
 30
0.0
 11
71.67284276224764
 21
115.7988294900677
 31
0.0
  0
SOLID
  5
17B
  8
0
  6
CONTINUOUS
 62
     7
 10
71.67284276224764
 20
115.7988294900677
 30
0.0
 11
65.67284276224764
 21
117.2988294900677
 31
0.0
 12
65.67284276224764
 22
114.2988294900677
 32
0.0
 13
65.67284276224764
 23
114.2988294900677
 33
0.0
  0
INSERT
  5
17C
  8
0
  2
*U89
 10
0.0
 20
0.0
 30
0.0
  0
INSERT
  5
17D
  8
0
  2
*U90
 10
0.0
 20
0.0
 30
0.0
  0
LINE
  5
17E
  8
0
  6
CENTER
 62
     7
 10
43.342333483244708
 20
166.04694619902389
 30
0.0
 11
95.864066473317735
 21
166.04694619902389
 31
0.0
  0
LINE
  5
17F
  8
0
  6
CONTINUOUS
 62
     7
 10
45.342333483244722
 20
154.04694619902381
 30
0.0
 11
45.342333483244722
 21
166.04694619902389
 31
0.0
  0
SOLID
  5
180
  8
0
  6
CONTINUOUS
 62
     7
 10
45.342333483244722
 20
166.04694619902389
 30
0.0
 11
43.842333483244722
 21
160.04694619902389
 31
0.0
 12
46.842333483244722
 22
160.04694619902389
 32
0.0
 13
46.842333483244722
 23
160.04694619902389
 33
0.0
  0
LINE
  5
181
  8
0
  6
CONTINUOUS
 62
     7
 10
93.864066473317735
 20
154.04694619902381
 30
0.0
 11
93.864066473317735
 21
166.04694619902389
 31
0.0
  0
SOLID
  5
182
  8
0
  6
CONTINUOUS
 62
     7
 10
93.864066473317735
 20
166.04694619902389
 30
0.0
 11
92.364066473317735
 21
160.04694619902389
 31
0.0
 12
95.364066473317735
 22
160.04694619902389
 32
0.0
 13
95.364066473317735
 23
160.04694619902389
 33
0.0
  0
INSERT
  5
183
  8
0
  2
*U91
 10
0.0
 20
0.0
 30
0.0
  0
INSERT
  5
184
  8
0
  2
*U92
 10
0.0
 20
0.0
 30
0.0
  0
LINE
  5
185
  8
LINIEN-DÜNN
  6
CENTERX2
 10
71.717717344570048
 20
219.5483859934005
 30
0.0
 11
71.717717344570048
 21
144.24329543620789
 31
0.0
  0
LINE
  5
186
  8
0
  6
CONTINUOUS
 62
     7
 10
117.24606545474811
 20
75.846111908887877
 30
0.0
 11
117.24606545474811
 21
74.82543589403069
 31
0.0
  0
LINE
  5
187
  8
0
  6
CONTINUOUS
 62
     7
 10
168.40156576737621
 20
87.915468920961104
 30
0.0
 11
149.0554629680571
 21
76.747201498170526
 31
0.0
  0
LINE
  5
188
  8
0
  6
CONTINUOUS
 62
     7
 10
149.0554629680571
 20
76.747201498170526
 30
0.0
 11
142.437282230096
 21
80.567795914556754
 31
0.0
  0
ARC
  5
189
  8
0
  6
CONTINUOUS
 62
     7
 10
149.05546296805721
 20
66.595857011398451
 30
0.0
 40
2.9999999999999978
 50
239.99822781231171
 51
300.01683738304979
  0
LINE
  5
18A
  8
0
  6
CONTINUOUS
 62
     7
 10
150.5553410670112
 20
63.997710424256411
 30
0.0
 11
164.93157390093711
 21
72.29693298536246
 31
0.0
  0
LINE
  5
18B
  8
0
  6
CONTINUOUS
 62
     7
 10
146.5288203574828
 20
64.590448960020282
 30
0.0
 11
147.55558486910309
 21
63.997710424256411
 31
0.0
  0
LINE
  5
18C
  8
0
  6
CONTINUOUS
 62
     7
 10
166.54312040436761
 20
74.784298570000587
 30
0.0
 11
166.67340630727639
 21
76.219670893887141
 31
0.0
  0
LINE
  5
18D
  8
0
  6
CONTINUOUS
 62
     7
 10
193.592782542724
 20
93.194618410041571
 30
0.0
 11
193.592782542724
 21
94.215294424898744
 31
0.0
  0
POLYLINE
  8
0
  5
5DA
  62
7
  66
     1
 10
0.000000
 20
0.000000
 30
0.000000
  70
     8
  0
VERTEX
  8
0
  5
5DB
 10
164.929
 20
72.2987
 30
0.000000
  70
    32
  0
VERTEX
  8
0
  5
5DC
 10
164.935
 20
72.3019
 30
0.000000
  70
    32
  0
VERTEX
  8
0
  5
5DD
 10
164.940
 20
72.3050
 30
0.000000
  70
    32
  0
VERTEX
  8
0
  5
5DE
 10
164.946
 20
72.3082
 30
0.000000
  70
    32
  0
VERTEX
  8
0
  5
5DF
 10
164.952
 20
72.3114
 30
0.000000
  70
    32
  0
VERTEX
  8
0
  5
5E0
 10
164.957
 20
72.3146
 30
0.000000
  70
    32
  0
VERTEX
  8
0
  5
5E1
 10
164.963
 20
72.3178
 30
0.000000
  70
    32
  0
VERTEX
  8
0
  5
5E2
 10
164.968
 20
72.3210
 30
0.000000
  70
    32
  0
VERTEX
  8
0
  5
5E3
 10
164.974
 20
72.3242
 30
0.000000
  70
    32
  0
VERTEX
  8
0
  5
5E4
 10
164.979
 20
72.3274
 30
0.000000
  70
    32
  0
VERTEX
  8
0
  5
5E5
 10
164.985
 20
72.3306
 30
0.000000
  70
    32
  0
VERTEX
  8
0
  5
5E6
 10
164.991
 20
72.3338
 30
0.000000
  70
    32
  0
VERTEX
  8
0
  5
5E7
 10
164.996
 20
72.3370
 30
0.000000
  70
    32
  0
VERTEX
  8
0
  5
5E8
 10
165.002
 20
72.3402
 30
0.000000
  70
    32
  0
VERTEX
  8
0
  5
5E9
 10
165.007
 20
72.3435
 30
0.000000
  70
    32
  0
VERTEX
  8
0
  5
5EA
 10
165.013
 20
72.3467
 30
0.000000
  70
    32
  0
VERTEX
  8
0
  5
5EB
 10
165.018
 20
72.3500
 30
0.000000
  70
    32
  0
VERTEX
  8
0
  5
5EC
 10
165.024
 20
72.3532
 30
0.000000
  70
    32
  0
VERTEX
  8
0
  5
5ED
 10
165.029
 20
72.3565
 30
0.000000
  70
    32
  0
VERTEX
  8
0
  5
5EE
 10
165.035
 20
72.3598
 30
0.000000
  70
    32
  0
VERTEX
  8
0
  5
5EF
 10
165.040
 20
72.3631
 30
0.000000
  70
    32
  0
VERTEX
  8
0
  5
5F0
 10
165.046
 20
72.3665
 30
0.000000
  70
    32
  0
VERTEX
  8
0
  5
5F1
 10
165.051
 20
72.3698
 30
0.000000
  70
    32
  0
VERTEX
  8
0
  5
5F2
 10
165.057
 20
72.3731
 30
0.000000
  70
    32
  0
VERTEX
  8
0
  5
5F3
 10
165.062
 20
72.3765
 30
0.000000
  70
    32
  0
VERTEX
  8
0
  5
5F4
 10
165.068
 20
72.3799
 30
0.000000
  70
    32
  0
VERTEX
  8
0
  5
5F5
 10
165.073
 20
72.3833
 30
0.000000
  70
    32
  0
VERTEX
  8
0
  5
5F6
 10
165.079
 20
72.3867
 30
0.000000
  70
    32
  0
VERTEX
  8
0
  5
5F7
 10
165.084
 20
72.3902
 30
0.000000
  70
    32
  0
VERTEX
  8
0
  5
5F8
 10
165.090
 20
72.3936
 30
0.000000
  70
    32
  0
VERTEX
  8
0
  5
5F9
 10
165.095
 20
72.3971
 30
0.000000
  70
    32
  0
VERTEX
  8
0
  5
5FA
 10
165.100
 20
72.4006
 30
0.000000
  70
    32
  0
VERTEX
  8
0
  5
5FB
 10
165.106
 20
72.4041
 30
0.000000
  70
    32
  0
VERTEX
  8
0
  5
5FC
 10
165.111
 20
72.4076
 30
0.000000
  70
    32
  0
VERTEX
  8
0
  5
5FD
 10
165.117
 20
72.4111
 30
0.000000
  70
    32
  0
VERTEX
  8
0
  5
5FE
 10
165.122
 20
72.4147
 30
0.000000
  70
    32
  0
VERTEX
  8
0
  5
5FF
 10
165.127
 20
72.4182
 30
0.000000
  70
    32
  0
VERTEX
  8
0
  5
600
 10
165.133
 20
72.4218
 30
0.000000
  70
    32
  0
VERTEX
  8
0
  5
601
 10
165.138
 20
72.4254
 30
0.000000
  70
    32
  0
VERTEX
  8
0
  5
602
 10
165.143
 20
72.4290
 30
0.000000
  70
    32
  0
VERTEX
  8
0
  5
603
 10
165.149
 20
72.4326
 30
0.000000
  70
    32
  0
VERTEX
  8
0
  5
604
 10
165.154
 20
72.4363
 30
0.000000
  70
    32
  0
VERTEX
  8
0
  5
605
 10
165.159
 20
72.4399
 30
0.000000
  70
    32
  0
VERTEX
  8
0
  5
606
 10
165.165
 20
72.4436
 30
0.000000
  70
    32
  0
VERTEX
  8
0
  5
607
 10
165.170
 20
72.4472
 30
0.000000
  70
    32
  0
VERTEX
  8
0
  5
608
 10
165.175
 20
72.4509
 30
0.000000
  70
    32
  0
VERTEX
  8
0
  5
609
 10
165.180
 20
72.4546
 30
0.000000
  70
    32
  0
VERTEX
  8
0
  5
60A
 10
165.186
 20
72.4583
 30
0.000000
  70
    32
  0
VERTEX
  8
0
  5
60B
 10
165.191
 20
72.4621
 30
0.000000
  70
    32
  0
VERTEX
  8
0
  5
60C
 10
165.196
 20
72.4658
 30
0.000000
  70
    32
  0
VERTEX
  8
0
  5
60D
 10
165.201
 20
72.4695
 30
0.000000
  70
    32
  0
VERTEX
  8
0
  5
60E
 10
165.207
 20
72.4733
 30
0.000000
  70
    32
  0
VERTEX
  8
0
  5
60F
 10
165.212
 20
72.4771
 30
0.000000
  70
    32
  0
VERTEX
  8
0
  5
610
 10
165.217
 20
72.4809
 30
0.000000
  70
    32
  0
VERTEX
  8
0
  5
611
 10
165.222
 20
72.4847
 30
0.000000
  70
    32
  0
VERTEX
  8
0
  5
612
 10
165.227
 20
72.4885
 30
0.000000
  70
    32
  0
VERTEX
  8
0
  5
613
 10
165.233
 20
72.4923
 30
0.000000
  70
    32
  0
VERTEX
  8
0
  5
614
 10
165.238
 20
72.4961
 30
0.000000
  70
    32
  0
VERTEX
  8
0
  5
615
 10
165.243
 20
72.4999
 30
0.000000
  70
    32
  0
VERTEX
  8
0
  5
616
 10
165.248
 20
72.5038
 30
0.000000
  70
    32
  0
VERTEX
  8
0
  5
617
 10
165.253
 20
72.5076
 30
0.000000
  70
    32
  0
VERTEX
  8
0
  5
618
 10
165.258
 20
72.5115
 30
0.000000
  70
    32
  0
VERTEX
  8
0
  5
619
 10
165.263
 20
72.5154
 30
0.000000
  70
    32
  0
VERTEX
  8
0
  5
61A
 10
165.269
 20
72.5193
 30
0.000000
  70
    32
  0
VERTEX
  8
0
  5
61B
 10
165.274
 20
72.5232
 30
0.000000
  70
    32
  0
VERTEX
  8
0
  5
61C
 10
165.279
 20
72.5271
 30
0.000000
  70
    32
  0
VERTEX
  8
0
  5
61D
 10
165.284
 20
72.5310
 30
0.000000
  70
    32
  0
VERTEX
  8
0
  5
61E
 10
165.289
 20
72.5349
 30
0.000000
  70
    32
  0
VERTEX
  8
0
  5
61F
 10
165.294
 20
72.5388
 30
0.000000
  70
    32
  0
VERTEX
  8
0
  5
620
 10
165.299
 20
72.5428
 30
0.000000
  70
    32
  0
VERTEX
  8
0
  5
621
 10
165.304
 20
72.5467
 30
0.000000
  70
    32
  0
VERTEX
  8
0
  5
622
 10
165.309
 20
72.5507
 30
0.000000
  70
    32
  0
VERTEX
  8
0
  5
623
 10
165.315
 20
72.5546
 30
0.000000
  70
    32
  0
VERTEX
  8
0
  5
624
 10
165.320
 20
72.5586
 30
0.000000
  70
    32
  0
VERTEX
  8
0
  5
625
 10
165.325
 20
72.5626
 30
0.000000
  70
    32
  0
VERTEX
  8
0
  5
626
 10
165.330
 20
72.5665
 30
0.000000
  70
    32
  0
VERTEX
  8
0
  5
627
 10
165.335
 20
72.5705
 30
0.000000
  70
    32
  0
VERTEX
  8
0
  5
628
 10
165.340
 20
72.5745
 30
0.000000
  70
    32
  0
VERTEX
  8
0
  5
629
 10
165.345
 20
72.5785
 30
0.000000
  70
    32
  0
VERTEX
  8
0
  5
62A
 10
165.350
 20
72.5826
 30
0.000000
  70
    32
  0
VERTEX
  8
0
  5
62B
 10
165.355
 20
72.5866
 30
0.000000
  70
    32
  0
VERTEX
  8
0
  5
62C
 10
165.360
 20
72.5906
 30
0.000000
  70
    32
  0
VERTEX
  8
0
  5
62D
 10
165.365
 20
72.5947
 30
0.000000
  70
    32
  0
VERTEX
  8
0
  5
62E
 10
165.370
 20
72.5987
 30
0.000000
  70
    32
  0
VERTEX
  8
0
  5
62F
 10
165.375
 20
72.6028
 30
0.000000
  70
    32
  0
VERTEX
  8
0
  5
630
 10
165.380
 20
72.6069
 30
0.000000
  70
    32
  0
VERTEX
  8
0
  5
631
 10
165.385
 20
72.6109
 30
0.000000
  70
    32
  0
VERTEX
  8
0
  5
632
 10
165.390
 20
72.6150
 30
0.000000
  70
    32
  0
VERTEX
  8
0
  5
633
 10
165.395
 20
72.6191
 30
0.000000
  70
    32
  0
VERTEX
  8
0
  5
634
 10
165.400
 20
72.6232
 30
0.000000
  70
    32
  0
VERTEX
  8
0
  5
635
 10
165.405
 20
72.6274
 30
0.000000
  70
    32
  0
VERTEX
  8
0
  5
636
 10
165.410
 20
72.6315
 30
0.000000
  70
    32
  0
VERTEX
  8
0
  5
637
 10
165.414
 20
72.6356
 30
0.000000
  70
    32
  0
VERTEX
  8
0
  5
638
 10
165.419
 20
72.6398
 30
0.000000
  70
    32
  0
VERTEX
  8
0
  5
639
 10
165.424
 20
72.6439
 30
0.000000
  70
    32
  0
VERTEX
  8
0
  5
63A
 10
165.429
 20
72.6481
 30
0.000000
  70
    32
  0
VERTEX
  8
0
  5
63B
 10
165.434
 20
72.6522
 30
0.000000
  70
    32
  0
VERTEX
  8
0
  5
63C
 10
165.439
 20
72.6564
 30
0.000000
  70
    32
  0
VERTEX
  8
0
  5
63D
 10
165.444
 20
72.6606
 30
0.000000
  70
    32
  0
VERTEX
  8
0
  5
63E
 10
165.449
 20
72.6648
 30
0.000000
  70
    32
  0
VERTEX
  8
0
  5
63F
 10
165.454
 20
72.6690
 30
0.000000
  70
    32
  0
VERTEX
  8
0
  5
640
 10
165.458
 20
72.6732
 30
0.000000
  70
    32
  0
VERTEX
  8
0
  5
641
 10
165.463
 20
72.6775
 30
0.000000
  70
    32
  0
VERTEX
  8
0
  5
642
 10
165.468
 20
72.6817
 30
0.000000
  70
    32
  0
VERTEX
  8
0
  5
643
 10
165.473
 20
72.6859
 30
0.000000
  70
    32
  0
VERTEX
  8
0
  5
644
 10
165.478
 20
72.6902
 30
0.000000
  70
    32
  0
VERTEX
  8
0
  5
645
 10
165.483
 20
72.6945
 30
0.000000
  70
    32
  0
VERTEX
  8
0
  5
646
 10
165.487
 20
72.6987
 30
0.000000
  70
    32
  0
VERTEX
  8
0
  5
647
 10
165.492
 20
72.7030
 30
0.000000
  70
    32
  0
VERTEX
  8
0
  5
648
 10
165.497
 20
72.7073
 30
0.000000
  70
    32
  0
VERTEX
  8
0
  5
649
 10
165.502
 20
72.7116
 30
0.000000
  70
    32
  0
VERTEX
  8
0
  5
64A
 10
165.507
 20
72.7159
 30
0.000000
  70
    32
  0
VERTEX
  8
0
  5
64B
 10
165.511
 20
72.7203
 30
0.000000
  70
    32
  0
VERTEX
  8
0
  5
64C
 10
165.516
 20
72.7246
 30
0.000000
  70
    32
  0
VERTEX
  8
0
  5
64D
 10
165.521
 20
72.7289
 30
0.000000
  70
    32
  0
VERTEX
  8
0
  5
64E
 10
165.526
 20
72.7333
 30
0.000000
  70
    32
  0
VERTEX
  8
0
  5
64F
 10
165.530
 20
72.7377
 30
0.000000
  70
    32
  0
VERTEX
  8
0
  5
650
 10
165.535
 20
72.7420
 30
0.000000
  70
    32
  0
VERTEX
  8
0
  5
651
 10
165.540
 20
72.7464
 30
0.000000
  70
    32
  0
VERTEX
  8
0
  5
652
 10
165.544
 20
72.7508
 30
0.000000
  70
    32
  0
VERTEX
  8
0
  5
653
 10
165.549
 20
72.7552
 30
0.000000
  70
    32
  0
VERTEX
  8
0
  5
654
 10
165.554
 20
72.7596
 30
0.000000
  70
    32
  0
VERTEX
  8
0
  5
655
 10
165.558
 20
72.7640
 30
0.000000
  70
    32
  0
VERTEX
  8
0
  5
656
 10
165.563
 20
72.7685
 30
0.000000
  70
    32
  0
VERTEX
  8
0
  5
657
 10
165.568
 20
72.7729
 30
0.000000
  70
    32
  0
VERTEX
  8
0
  5
658
 10
165.572
 20
72.7774
 30
0.000000
  70
    32
  0
VERTEX
  8
0
  5
659
 10
165.577
 20
72.7818
 30
0.000000
  70
    32
  0
VERTEX
  8
0
  5
65A
 10
165.582
 20
72.7863
 30
0.000000
  70
    32
  0
VERTEX
  8
0
  5
65B
 10
165.586
 20
72.7908
 30
0.000000
  70
    32
  0
VERTEX
  8
0
  5
65C
 10
165.591
 20
72.7952
 30
0.000000
  70
    32
  0
VERTEX
  8
0
  5
65D
 10
165.595
 20
72.7997
 30
0.000000
  70
    32
  0
VERTEX
  8
0
  5
65E
 10
165.600
 20
72.8042
 30
0.000000
  70
    32
  0
VERTEX
  8
0
  5
65F
 10
165.605
 20
72.8088
 30
0.000000
  70
    32
  0
VERTEX
  8
0
  5
660
 10
165.609
 20
72.8133
 30
0.000000
  70
    32
  0
VERTEX
  8
0
  5
661
 10
165.614
 20
72.8178
 30
0.000000
  70
    32
  0
VERTEX
  8
0
  5
662
 10
165.618
 20
72.8224
 30
0.000000
  70
    32
  0
VERTEX
  8
0
  5
663
 10
165.623
 20
72.8269
 30
0.000000
  70
    32
  0
VERTEX
  8
0
  5
664
 10
165.627
 20
72.8315
 30
0.000000
  70
    32
  0
VERTEX
  8
0
  5
665
 10
165.632
 20
72.8360
 30
0.000000
  70
    32
  0
VERTEX
  8
0
  5
666
 10
165.637
 20
72.8406
 30
0.000000
  70
    32
  0
VERTEX
  8
0
  5
667
 10
165.641
 20
72.8452
 30
0.000000
  70
    32
  0
VERTEX
  8
0
  5
668
 10
165.646
 20
72.8498
 30
0.000000
  70
    32
  0
VERTEX
  8
0
  5
669
 10
165.650
 20
72.8544
 30
0.000000
  70
    32
  0
VERTEX
  8
0
  5
66A
 10
165.654
 20
72.8590
 30
0.000000
  70
    32
  0
VERTEX
  8
0
  5
66B
 10
165.659
 20
72.8636
 30
0.000000
  70
    32
  0
VERTEX
  8
0
  5
66C
 10
165.663
 20
72.8683
 30
0.000000
  70
    32
  0
VERTEX
  8
0
  5
66D
 10
165.668
 20
72.8729
 30
0.000000
  70
    32
  0
VERTEX
  8
0
  5
66E
 10
165.672
 20
72.8776
 30
0.000000
  70
    32
  0
VERTEX
  8
0
  5
66F
 10
165.677
 20
72.8822
 30
0.000000
  70
    32
  0
VERTEX
  8
0
  5
670
 10
165.681
 20
72.8869
 30
0.000000
  70
    32
  0
VERTEX
  8
0
  5
671
 10
165.686
 20
72.8916
 30
0.000000
  70
    32
  0
VERTEX
  8
0
  5
672
 10
165.690
 20
72.8962
 30
0.000000
  70
    32
  0
VERTEX
  8
0
  5
673
 10
165.694
 20
72.9009
 30
0.000000
  70
    32
  0
VERTEX
  8
0
  5
674
 10
165.699
 20
72.9056
 30
0.000000
  70
    32
  0
VERTEX
  8
0
  5
675
 10
165.703
 20
72.9103
 30
0.000000
  70
    32
  0
VERTEX
  8
0
  5
676
 10
165.708
 20
72.9151
 30
0.000000
  70
    32
  0
VERTEX
  8
0
  5
677
 10
165.712
 20
72.9198
 30
0.000000
  70
    32
  0
VERTEX
  8
0
  5
678
 10
165.716
 20
72.9245
 30
0.000000
  70
    32
  0
VERTEX
  8
0
  5
679
 10
165.721
 20
72.9293
 30
0.000000
  70
    32
  0
VERTEX
  8
0
  5
67A
 10
165.725
 20
72.9340
 30
0.000000
  70
    32
  0
VERTEX
  8
0
  5
67B
 10
165.729
 20
72.9388
 30
0.000000
  70
    32
  0
VERTEX
  8
0
  5
67C
 10
165.734
 20
72.9436
 30
0.000000
  70
    32
  0
VERTEX
  8
0
  5
67D
 10
165.738
 20
72.9483
 30
0.000000
  70
    32
  0
VERTEX
  8
0
  5
67E
 10
165.742
 20
72.9531
 30
0.000000
  70
    32
  0
VERTEX
  8
0
  5
67F
 10
165.747
 20
72.9579
 30
0.000000
  70
    32
  0
VERTEX
  8
0
  5
680
 10
165.751
 20
72.9627
 30
0.000000
  70
    32
  0
VERTEX
  8
0
  5
681
 10
165.755
 20
72.9675
 30
0.000000
  70
    32
  0
VERTEX
  8
0
  5
682
 10
165.759
 20
72.9724
 30
0.000000
  70
    32
  0
VERTEX
  8
0
  5
683
 10
165.764
 20
72.9772
 30
0.000000
  70
    32
  0
VERTEX
  8
0
  5
684
 10
165.768
 20
72.9820
 30
0.000000
  70
    32
  0
VERTEX
  8
0
  5
685
 10
165.772
 20
72.9869
 30
0.000000
  70
    32
  0
VERTEX
  8
0
  5
686
 10
165.776
 20
72.9917
 30
0.000000
  70
    32
  0
VERTEX
  8
0
  5
687
 10
165.781
 20
72.9966
 30
0.000000
  70
    32
  0
VERTEX
  8
0
  5
688
 10
165.785
 20
73.0014
 30
0.000000
  70
    32
  0
VERTEX
  8
0
  5
689
 10
165.789
 20
73.0063
 30
0.000000
  70
    32
  0
VERTEX
  8
0
  5
68A
 10
165.793
 20
73.0112
 30
0.000000
  70
    32
  0
VERTEX
  8
0
  5
68B
 10
165.797
 20
73.0161
 30
0.000000
  70
    32
  0
VERTEX
  8
0
  5
68C
 10
165.801
 20
73.0210
 30
0.000000
  70
    32
  0
VERTEX
  8
0
  5
68D
 10
165.806
 20
73.0259
 30
0.000000
  70
    32
  0
VERTEX
  8
0
  5
68E
 10
165.810
 20
73.0308
 30
0.000000
  70
    32
  0
VERTEX
  8
0
  5
68F
 10
165.814
 20
73.0358
 30
0.000000
  70
    32
  0
VERTEX
  8
0
  5
690
 10
165.818
 20
73.0407
 30
0.000000
  70
    32
  0
VERTEX
  8
0
  5
691
 10
165.822
 20
73.0457
 30
0.000000
  70
    32
  0
VERTEX
  8
0
  5
692
 10
165.826
 20
73.0506
 30
0.000000
  70
    32
  0
VERTEX
  8
0
  5
693
 10
165.830
 20
73.0556
 30
0.000000
  70
    32
  0
VERTEX
  8
0
  5
694
 10
165.834
 20
73.0605
 30
0.000000
  70
    32
  0
VERTEX
  8
0
  5
695
 10
165.838
 20
73.0655
 30
0.000000
  70
    32
  0
VERTEX
  8
0
  5
696
 10
165.843
 20
73.0705
 30
0.000000
  70
    32
  0
VERTEX
  8
0
  5
697
 10
165.847
 20
73.0755
 30
0.000000
  70
    32
  0
VERTEX
  8
0
  5
698
 10
165.851
 20
73.0805
 30
0.000000
  70
    32
  0
VERTEX
  8
0
  5
699
 10
165.855
 20
73.0855
 30
0.000000
  70
    32
  0
VERTEX
  8
0
  5
69A
 10
165.859
 20
73.0905
 30
0.000000
  70
    32
  0
VERTEX
  8
0
  5
69B
 10
165.863
 20
73.0955
 30
0.000000
  70
    32
  0
VERTEX
  8
0
  5
69C
 10
165.867
 20
73.1006
 30
0.000000
  70
    32
  0
VERTEX
  8
0
  5
69D
 10
165.871
 20
73.1056
 30
0.000000
  70
    32
  0
VERTEX
  8
0
  5
69E
 10
165.875
 20
73.1107
 30
0.000000
  70
    32
  0
VERTEX
  8
0
  5
69F
 10
165.879
 20
73.1157
 30
0.000000
  70
    32
  0
VERTEX
  8
0
  5
6A0
 10
165.883
 20
73.1208
 30
0.000000
  70
    32
  0
VERTEX
  8
0
  5
6A1
 10
165.887
 20
73.1259
 30
0.000000
  70
    32
  0
VERTEX
  8
0
  5
6A2
 10
165.891
 20
73.1309
 30
0.000000
  70
    32
  0
VERTEX
  8
0
  5
6A3
 10
165.894
 20
73.1360
 30
0.000000
  70
    32
  0
VERTEX
  8
0
  5
6A4
 10
165.898
 20
73.1411
 30
0.000000
  70
    32
  0
VERTEX
  8
0
  5
6A5
 10
165.902
 20
73.1462
 30
0.000000
  70
    32
  0
VERTEX
  8
0
  5
6A6
 10
165.906
 20
73.1514
 30
0.000000
  70
    32
  0
VERTEX
  8
0
  5
6A7
 10
165.910
 20
73.1565
 30
0.000000
  70
    32
  0
VERTEX
  8
0
  5
6A8
 10
165.914
 20
73.1616
 30
0.000000
  70
    32
  0
VERTEX
  8
0
  5
6A9
 10
165.918
 20
73.1667
 30
0.000000
  70
    32
  0
VERTEX
  8
0
  5
6AA
 10
165.922
 20
73.1719
 30
0.000000
  70
    32
  0
VERTEX
  8
0
  5
6AB
 10
165.926
 20
73.1770
 30
0.000000
  70
    32
  0
VERTEX
  8
0
  5
6AC
 10
165.929
 20
73.1822
 30
0.000000
  70
    32
  0
VERTEX
  8
0
  5
6AD
 10
165.933
 20
73.1874
 30
0.000000
  70
    32
  0
VERTEX
  8
0
  5
6AE
 10
165.937
 20
73.1925
 30
0.000000
  70
    32
  0
VERTEX
  8
0
  5
6AF
 10
165.941
 20
73.1977
 30
0.000000
  70
    32
  0
VERTEX
  8
0
  5
6B0
 10
165.945
 20
73.2029
 30
0.000000
  70
    32
  0
VERTEX
  8
0
  5
6B1
 10
165.948
 20
73.2081
 30
0.000000
  70
    32
  0
VERTEX
  8
0
  5
6B2
 10
165.952
 20
73.2133
 30
0.000000
  70
    32
  0
VERTEX
  8
0
  5
6B3
 10
165.956
 20
73.2185
 30
0.000000
  70
    32
  0
VERTEX
  8
0
  5
6B4
 10
165.960
 20
73.2238
 30
0.000000
  70
    32
  0
VERTEX
  8
0
  5
6B5
 10
165.964
 20
73.2290
 30
0.000000
  70
    32
  0
VERTEX
  8
0
  5
6B6
 10
165.967
 20
73.2342
 30
0.000000
  70
    32
  0
VERTEX
  8
0
  5
6B7
 10
165.971
 20
73.2395
 30
0.000000
  70
    32
  0
VERTEX
  8
0
  5
6B8
 10
165.975
 20
73.2447
 30
0.000000
  70
    32
  0
VERTEX
  8
0
  5
6B9
 10
165.978
 20
73.2500
 30
0.000000
  70
    32
  0
VERTEX
  8
0
  5
6BA
 10
165.982
 20
73.2552
 30
0.000000
  70
    32
  0
VERTEX
  8
0
  5
6BB
 10
165.986
 20
73.2605
 30
0.000000
  70
    32
  0
VERTEX
  8
0
  5
6BC
 10
165.990
 20
73.2658
 30
0.000000
  70
    32
  0
VERTEX
  8
0
  5
6BD
 10
165.993
 20
73.2711
 30
0.000000
  70
    32
  0
VERTEX
  8
0
  5
6BE
 10
165.997
 20
73.2764
 30
0.000000
  70
    32
  0
VERTEX
  8
0
  5
6BF
 10
166.000
 20
73.2817
 30
0.000000
  70
    32
  0
VERTEX
  8
0
  5
6C0
 10
166.004
 20
73.2870
 30
0.000000
  70
    32
  0
VERTEX
  8
0
  5
6C1
 10
166.008
 20
73.2923
 30
0.000000
  70
    32
  0
VERTEX
  8
0
  5
6C2
 10
166.011
 20
73.2976
 30
0.000000
  70
    32
  0
VERTEX
  8
0
  5
6C3
 10
166.015
 20
73.3030
 30
0.000000
  70
    32
  0
VERTEX
  8
0
  5
6C4
 10
166.019
 20
73.3083
 30
0.000000
  70
    32
  0
VERTEX
  8
0
  5
6C5
 10
166.022
 20
73.3136
 30
0.000000
  70
    32
  0
VERTEX
  8
0
  5
6C6
 10
166.026
 20
73.3190
 30
0.000000
  70
    32
  0
VERTEX
  8
0
  5
6C7
 10
166.029
 20
73.3244
 30
0.000000
  70
    32
  0
VERTEX
  8
0
  5
6C8
 10
166.033
 20
73.3297
 30
0.000000
  70
    32
  0
VERTEX
  8
0
  5
6C9
 10
166.036
 20
73.3351
 30
0.000000
  70
    32
  0
VERTEX
  8
0
  5
6CA
 10
166.040
 20
73.3405
 30
0.000000
  70
    32
  0
VERTEX
  8
0
  5
6CB
 10
166.043
 20
73.3459
 30
0.000000
  70
    32
  0
VERTEX
  8
0
  5
6CC
 10
166.047
 20
73.3513
 30
0.000000
  70
    32
  0
VERTEX
  8
0
  5
6CD
 10
166.050
 20
73.3567
 30
0.000000
  70
    32
  0
VERTEX
  8
0
  5
6CE
 10
166.054
 20
73.3621
 30
0.000000
  70
    32
  0
VERTEX
  8
0
  5
6CF
 10
166.057
 20
73.3675
 30
0.000000
  70
    32
  0
VERTEX
  8
0
  5
6D0
 10
166.061
 20
73.3729
 30
0.000000
  70
    32
  0
VERTEX
  8
0
  5
6D1
 10
166.064
 20
73.3784
 30
0.000000
  70
    32
  0
VERTEX
  8
0
  5
6D2
 10
166.068
 20
73.3838
 30
0.000000
  70
    32
  0
VERTEX
  8
0
  5
6D3
 10
166.071
 20
73.3892
 30
0.000000
  70
    32
  0
VERTEX
  8
0
  5
6D4
 10
166.074
 20
73.3947
 30
0.000000
  70
    32
  0
VERTEX
  8
0
  5
6D5
 10
166.078
 20
73.4002
 30
0.000000
  70
    32
  0
VERTEX
  8
0
  5
6D6
 10
166.081
 20
73.4056
 30
0.000000
  70
    32
  0
VERTEX
  8
0
  5
6D7
 10
166.085
 20
73.4111
 30
0.000000
  70
    32
  0
VERTEX
  8
0
  5
6D8
 10
166.088
 20
73.4166
 30
0.000000
  70
    32
  0
VERTEX
  8
0
  5
6D9
 10
166.091
 20
73.4221
 30
0.000000
  70
    32
  0
VERTEX
  8
0
  5
6DA
 10
166.095
 20
73.4275
 30
0.000000
  70
    32
  0
VERTEX
  8
0
  5
6DB
 10
166.098
 20
73.4330
 30
0.000000
  70
    32
  0
VERTEX
  8
0
  5
6DC
 10
166.101
 20
73.4386
 30
0.000000
  70
    32
  0
VERTEX
  8
0
  5
6DD
 10
166.105
 20
73.4441
 30
0.000000
  70
    32
  0
VERTEX
  8
0
  5
6DE
 10
166.108
 20
73.4496
 30
0.000000
  70
    32
  0
VERTEX
  8
0
  5
6DF
 10
166.111
 20
73.4551
 30
0.000000
  70
    32
  0
VERTEX
  8
0
  5
6E0
 10
166.115
 20
73.4606
 30
0.000000
  70
    32
  0
VERTEX
  8
0
  5
6E1
 10
166.118
 20
73.4662
 30
0.000000
  70
    32
  0
VERTEX
  8
0
  5
6E2
 10
166.121
 20
73.4717
 30
0.000000
  70
    32
  0
VERTEX
  8
0
  5
6E3
 10
166.124
 20
73.4773
 30
0.000000
  70
    32
  0
VERTEX
  8
0
  5
6E4
 10
166.128
 20
73.4828
 30
0.000000
  70
    32
  0
VERTEX
  8
0
  5
6E5
 10
166.131
 20
73.4884
 30
0.000000
  70
    32
  0
VERTEX
  8
0
  5
6E6
 10
166.134
 20
73.4940
 30
0.000000
  70
    32
  0
VERTEX
  8
0
  5
6E7
 10
166.137
 20
73.4996
 30
0.000000
  70
    32
  0
VERTEX
  8
0
  5
6E8
 10
166.140
 20
73.5051
 30
0.000000
  70
    32
  0
VERTEX
  8
0
  5
6E9
 10
166.144
 20
73.5107
 30
0.000000
  70
    32
  0
VERTEX
  8
0
  5
6EA
 10
166.147
 20
73.5163
 30
0.000000
  70
    32
  0
VERTEX
  8
0
  5
6EB
 10
166.150
 20
73.5219
 30
0.000000
  70
    32
  0
VERTEX
  8
0
  5
6EC
 10
166.153
 20
73.5276
 30
0.000000
  70
    32
  0
VERTEX
  8
0
  5
6ED
 10
166.156
 20
73.5332
 30
0.000000
  70
    32
  0
VERTEX
  8
0
  5
6EE
 10
166.159
 20
73.5388
 30
0.000000
  70
    32
  0
VERTEX
  8
0
  5
6EF
 10
166.163
 20
73.5444
 30
0.000000
  70
    32
  0
VERTEX
  8
0
  5
6F0
 10
166.166
 20
73.5501
 30
0.000000
  70
    32
  0
VERTEX
  8
0
  5
6F1
 10
166.169
 20
73.5557
 30
0.000000
  70
    32
  0
VERTEX
  8
0
  5
6F2
 10
166.172
 20
73.5614
 30
0.000000
  70
    32
  0
VERTEX
  8
0
  5
6F3
 10
166.175
 20
73.5670
 30
0.000000
  70
    32
  0
VERTEX
  8
0
  5
6F4
 10
166.178
 20
73.5727
 30
0.000000
  70
    32
  0
VERTEX
  8
0
  5
6F5
 10
166.181
 20
73.5783
 30
0.000000
  70
    32
  0
VERTEX
  8
0
  5
6F6
 10
166.184
 20
73.5840
 30
0.000000
  70
    32
  0
VERTEX
  8
0
  5
6F7
 10
166.187
 20
73.5897
 30
0.000000
  70
    32
  0
VERTEX
  8
0
  5
6F8
 10
166.190
 20
73.5954
 30
0.000000
  70
    32
  0
VERTEX
  8
0
  5
6F9
 10
166.193
 20
73.6011
 30
0.000000
  70
    32
  0
VERTEX
  8
0
  5
6FA
 10
166.196
 20
73.6068
 30
0.000000
  70
    32
  0
VERTEX
  8
0
  5
6FB
 10
166.199
 20
73.6125
 30
0.000000
  70
    32
  0
VERTEX
  8
0
  5
6FC
 10
166.202
 20
73.6182
 30
0.000000
  70
    32
  0
VERTEX
  8
0
  5
6FD
 10
166.205
 20
73.6239
 30
0.000000
  70
    32
  0
VERTEX
  8
0
  5
6FE
 10
166.208
 20
73.6296
 30
0.000000
  70
    32
  0
VERTEX
  8
0
  5
6FF
 10
166.211
 20
73.6353
 30
0.000000
  70
    32
  0
VERTEX
  8
0
  5
700
 10
166.214
 20
73.6411
 30
0.000000
  70
    32
  0
VERTEX
  8
0
  5
701
 10
166.217
 20
73.6468
 30
0.000000
  70
    32
  0
VERTEX
  8
0
  5
702
 10
166.220
 20
73.6526
 30
0.000000
  70
    32
  0
VERTEX
  8
0
  5
703
 10
166.222
 20
73.6583
 30
0.000000
  70
    32
  0
VERTEX
  8
0
  5
704
 10
166.225
 20
73.6641
 30
0.000000
  70
    32
  0
VERTEX
  8
0
  5
705
 10
166.228
 20
73.6698
 30
0.000000
  70
    32
  0
VERTEX
  8
0
  5
706
 10
166.231
 20
73.6756
 30
0.000000
  70
    32
  0
VERTEX
  8
0
  5
707
 10
166.234
 20
73.6814
 30
0.000000
  70
    32
  0
VERTEX
  8
0
  5
708
 10
166.237
 20
73.6872
 30
0.000000
  70
    32
  0
VERTEX
  8
0
  5
709
 10
166.239
 20
73.6930
 30
0.000000
  70
    32
  0
VERTEX
  8
0
  5
70A
 10
166.242
 20
73.6987
 30
0.000000
  70
    32
  0
VERTEX
  8
0
  5
70B
 10
166.245
 20
73.7045
 30
0.000000
  70
    32
  0
VERTEX
  8
0
  5
70C
 10
166.248
 20
73.7103
 30
0.000000
  70
    32
  0
VERTEX
  8
0
  5
70D
 10
166.251
 20
73.7162
 30
0.000000
  70
    32
  0
VERTEX
  8
0
  5
70E
 10
166.253
 20
73.7220
 30
0.000000
  70
    32
  0
VERTEX
  8
0
  5
70F
 10
166.256
 20
73.7278
 30
0.000000
  70
    32
  0
VERTEX
  8
0
  5
710
 10
166.259
 20
73.7336
 30
0.000000
  70
    32
  0
VERTEX
  8
0
  5
711
 10
166.262
 20
73.7394
 30
0.000000
  70
    32
  0
VERTEX
  8
0
  5
712
 10
166.264
 20
73.7453
 30
0.000000
  70
    32
  0
VERTEX
  8
0
  5
713
 10
166.267
 20
73.7511
 30
0.000000
  70
    32
  0
VERTEX
  8
0
  5
714
 10
166.270
 20
73.7570
 30
0.000000
  70
    32
  0
VERTEX
  8
0
  5
715
 10
166.272
 20
73.7628
 30
0.000000
  70
    32
  0
VERTEX
  8
0
  5
716
 10
166.275
 20
73.7687
 30
0.000000
  70
    32
  0
VERTEX
  8
0
  5
717
 10
166.278
 20
73.7746
 30
0.000000
  70
    32
  0
VERTEX
  8
0
  5
718
 10
166.280
 20
73.7804
 30
0.000000
  70
    32
  0
VERTEX
  8
0
  5
719
 10
166.283
 20
73.7863
 30
0.000000
  70
    32
  0
VERTEX
  8
0
  5
71A
 10
166.286
 20
73.7922
 30
0.000000
  70
    32
  0
VERTEX
  8
0
  5
71B
 10
166.288
 20
73.7981
 30
0.000000
  70
    32
  0
VERTEX
  8
0
  5
71C
 10
166.291
 20
73.8040
 30
0.000000
  70
    32
  0
VERTEX
  8
0
  5
71D
 10
166.293
 20
73.8098
 30
0.000000
  70
    32
  0
VERTEX
  8
0
  5
71E
 10
166.296
 20
73.8157
 30
0.000000
  70
    32
  0
VERTEX
  8
0
  5
71F
 10
166.298
 20
73.8217
 30
0.000000
  70
    32
  0
VERTEX
  8
0
  5
720
 10
166.301
 20
73.8276
 30
0.000000
  70
    32
  0
VERTEX
  8
0
  5
721
 10
166.303
 20
73.8335
 30
0.000000
  70
    32
  0
VERTEX
  8
0
  5
722
 10
166.306
 20
73.8394
 30
0.000000
  70
    32
  0
VERTEX
  8
0
  5
723
 10
166.308
 20
73.8453
 30
0.000000
  70
    32
  0
VERTEX
  8
0
  5
724
 10
166.311
 20
73.8513
 30
0.000000
  70
    32
  0
VERTEX
  8
0
  5
725
 10
166.313
 20
73.8572
 30
0.000000
  70
    32
  0
VERTEX
  8
0
  5
726
 10
166.316
 20
73.8631
 30
0.000000
  70
    32
  0
VERTEX
  8
0
  5
727
 10
166.318
 20
73.8691
 30
0.000000
  70
    32
  0
VERTEX
  8
0
  5
728
 10
166.321
 20
73.8750
 30
0.000000
  70
    32
  0
VERTEX
  8
0
  5
729
 10
166.323
 20
73.8810
 30
0.000000
  70
    32
  0
VERTEX
  8
0
  5
72A
 10
166.326
 20
73.8870
 30
0.000000
  70
    32
  0
VERTEX
  8
0
  5
72B
 10
166.328
 20
73.8929
 30
0.000000
  70
    32
  0
VERTEX
  8
0
  5
72C
 10
166.331
 20
73.8989
 30
0.000000
  70
    32
  0
VERTEX
  8
0
  5
72D
 10
166.333
 20
73.9049
 30
0.000000
  70
    32
  0
VERTEX
  8
0
  5
72E
 10
166.335
 20
73.9109
 30
0.000000
  70
    32
  0
VERTEX
  8
0
  5
72F
 10
166.338
 20
73.9169
 30
0.000000
  70
    32
  0
VERTEX
  8
0
  5
730
 10
166.340
 20
73.9228
 30
0.000000
  70
    32
  0
VERTEX
  8
0
  5
731
 10
166.342
 20
73.9288
 30
0.000000
  70
    32
  0
VERTEX
  8
0
  5
732
 10
166.345
 20
73.9348
 30
0.000000
  70
    32
  0
VERTEX
  8
0
  5
733
 10
166.347
 20
73.9408
 30
0.000000
  70
    32
  0
VERTEX
  8
0
  5
734
 10
166.349
 20
73.9469
 30
0.000000
  70
    32
  0
VERTEX
  8
0
  5
735
 10
166.352
 20
73.9529
 30
0.000000
  70
    32
  0
VERTEX
  8
0
  5
736
 10
166.354
 20
73.9589
 30
0.000000
  70
    32
  0
VERTEX
  8
0
  5
737
 10
166.356
 20
73.9649
 30
0.000000
  70
    32
  0
VERTEX
  8
0
  5
738
 10
166.358
 20
73.9709
 30
0.000000
  70
    32
  0
VERTEX
  8
0
  5
739
 10
166.361
 20
73.9770
 30
0.000000
  70
    32
  0
VERTEX
  8
0
  5
73A
 10
166.363
 20
73.9830
 30
0.000000
  70
    32
  0
VERTEX
  8
0
  5
73B
 10
166.365
 20
73.9891
 30
0.000000
  70
    32
  0
VERTEX
  8
0
  5
73C
 10
166.367
 20
73.9951
 30
0.000000
  70
    32
  0
VERTEX
  8
0
  5
73D
 10
166.369
 20
74.0012
 30
0.000000
  70
    32
  0
VERTEX
  8
0
  5
73E
 10
166.372
 20
74.0072
 30
0.000000
  70
    32
  0
VERTEX
  8
0
  5
73F
 10
166.374
 20
74.0133
 30
0.000000
  70
    32
  0
VERTEX
  8
0
  5
740
 10
166.376
 20
74.0193
 30
0.000000
  70
    32
  0
VERTEX
  8
0
  5
741
 10
166.378
 20
74.0254
 30
0.000000
  70
    32
  0
VERTEX
  8
0
  5
742
 10
166.380
 20
74.0315
 30
0.000000
  70
    32
  0
VERTEX
  8
0
  5
743
 10
166.382
 20
74.0376
 30
0.000000
  70
    32
  0
VERTEX
  8
0
  5
744
 10
166.384
 20
74.0436
 30
0.000000
  70
    32
  0
VERTEX
  8
0
  5
745
 10
166.386
 20
74.0497
 30
0.000000
  70
    32
  0
VERTEX
  8
0
  5
746
 10
166.389
 20
74.0558
 30
0.000000
  70
    32
  0
VERTEX
  8
0
  5
747
 10
166.391
 20
74.0619
 30
0.000000
  70
    32
  0
VERTEX
  8
0
  5
748
 10
166.393
 20
74.0680
 30
0.000000
  70
    32
  0
VERTEX
  8
0
  5
749
 10
166.395
 20
74.0741
 30
0.000000
  70
    32
  0
VERTEX
  8
0
  5
74A
 10
166.397
 20
74.0802
 30
0.000000
  70
    32
  0
VERTEX
  8
0
  5
74B
 10
166.399
 20
74.0863
 30
0.000000
  70
    32
  0
VERTEX
  8
0
  5
74C
 10
166.401
 20
74.0925
 30
0.000000
  70
    32
  0
VERTEX
  8
0
  5
74D
 10
166.403
 20
74.0986
 30
0.000000
  70
    32
  0
VERTEX
  8
0
  5
74E
 10
166.405
 20
74.1047
 30
0.000000
  70
    32
  0
VERTEX
  8
0
  5
74F
 10
166.407
 20
74.1108
 30
0.000000
  70
    32
  0
VERTEX
  8
0
  5
750
 10
166.409
 20
74.1170
 30
0.000000
  70
    32
  0
VERTEX
  8
0
  5
751
 10
166.410
 20
74.1231
 30
0.000000
  70
    32
  0
VERTEX
  8
0
  5
752
 10
166.412
 20
74.1292
 30
0.000000
  70
    32
  0
VERTEX
  8
0
  5
753
 10
166.414
 20
74.1354
 30
0.000000
  70
    32
  0
VERTEX
  8
0
  5
754
 10
166.416
 20
74.1415
 30
0.000000
  70
    32
  0
VERTEX
  8
0
  5
755
 10
166.418
 20
74.1477
 30
0.000000
  70
    32
  0
VERTEX
  8
0
  5
756
 10
166.420
 20
74.1538
 30
0.000000
  70
    32
  0
VERTEX
  8
0
  5
757
 10
166.422
 20
74.1600
 30
0.000000
  70
    32
  0
VERTEX
  8
0
  5
758
 10
166.424
 20
74.1662
 30
0.000000
  70
    32
  0
VERTEX
  8
0
  5
759
 10
166.426
 20
74.1723
 30
0.000000
  70
    32
  0
VERTEX
  8
0
  5
75A
 10
166.427
 20
74.1785
 30
0.000000
  70
    32
  0
VERTEX
  8
0
  5
75B
 10
166.429
 20
74.1847
 30
0.000000
  70
    32
  0
VERTEX
  8
0
  5
75C
 10
166.431
 20
74.1908
 30
0.000000
  70
    32
  0
VERTEX
  8
0
  5
75D
 10
166.433
 20
74.1970
 30
0.000000
  70
    32
  0
VERTEX
  8
0
  5
75E
 10
166.435
 20
74.2032
 30
0.000000
  70
    32
  0
VERTEX
  8
0
  5
75F
 10
166.436
 20
74.2094
 30
0.000000
  70
    32
  0
VERTEX
  8
0
  5
760
 10
166.438
 20
74.2156
 30
0.000000
  70
    32
  0
VERTEX
  8
0
  5
761
 10
166.440
 20
74.2218
 30
0.000000
  70
    32
  0
VERTEX
  8
0
  5
762
 10
166.442
 20
74.2280
 30
0.000000
  70
    32
  0
VERTEX
  8
0
  5
763
 10
166.443
 20
74.2342
 30
0.000000
  70
    32
  0
VERTEX
  8
0
  5
764
 10
166.445
 20
74.2404
 30
0.000000
  70
    32
  0
VERTEX
  8
0
  5
765
 10
166.447
 20
74.2466
 30
0.000000
  70
    32
  0
VERTEX
  8
0
  5
766
 10
166.448
 20
74.2528
 30
0.000000
  70
    32
  0
VERTEX
  8
0
  5
767
 10
166.450
 20
74.2590
 30
0.000000
  70
    32
  0
VERTEX
  8
0
  5
768
 10
166.452
 20
74.2653
 30
0.000000
  70
    32
  0
VERTEX
  8
0
  5
769
 10
166.453
 20
74.2715
 30
0.000000
  70
    32
  0
VERTEX
  8
0
  5
76A
 10
166.455
 20
74.2777
 30
0.000000
  70
    32
  0
VERTEX
  8
0
  5
76B
 10
166.456
 20
74.2839
 30
0.000000
  70
    32
  0
VERTEX
  8
0
  5
76C
 10
166.458
 20
74.2902
 30
0.000000
  70
    32
  0
VERTEX
  8
0
  5
76D
 10
166.460
 20
74.2964
 30
0.000000
  70
    32
  0
VERTEX
  8
0
  5
76E
 10
166.461
 20
74.3027
 30
0.000000
  70
    32
  0
VERTEX
  8
0
  5
76F
 10
166.463
 20
74.3089
 30
0.000000
  70
    32
  0
VERTEX
  8
0
  5
770
 10
166.464
 20
74.3151
 30
0.000000
  70
    32
  0
VERTEX
  8
0
  5
771
 10
166.466
 20
74.3214
 30
0.000000
  70
    32
  0
VERTEX
  8
0
  5
772
 10
166.467
 20
74.3276
 30
0.000000
  70
    32
  0
VERTEX
  8
0
  5
773
 10
166.469
 20
74.3339
 30
0.000000
  70
    32
  0
VERTEX
  8
0
  5
774
 10
166.470
 20
74.3402
 30
0.000000
  70
    32
  0
VERTEX
  8
0
  5
775
 10
166.472
 20
74.3464
 30
0.000000
  70
    32
  0
VERTEX
  8
0
  5
776
 10
166.473
 20
74.3527
 30
0.000000
  70
    32
  0
VERTEX
  8
0
  5
777
 10
166.475
 20
74.3589
 30
0.000000
  70
    32
  0
VERTEX
  8
0
  5
778
 10
166.476
 20
74.3652
 30
0.000000
  70
    32
  0
VERTEX
  8
0
  5
779
 10
166.478
 20
74.3715
 30
0.000000
  70
    32
  0
VERTEX
  8
0
  5
77A
 10
166.479
 20
74.3778
 30
0.000000
  70
    32
  0
VERTEX
  8
0
  5
77B
 10
166.481
 20
74.3840
 30
0.000000
  70
    32
  0
VERTEX
  8
0
  5
77C
 10
166.482
 20
74.3903
 30
0.000000
  70
    32
  0
VERTEX
  8
0
  5
77D
 10
166.483
 20
74.3966
 30
0.000000
  70
    32
  0
VERTEX
  8
0
  5
77E
 10
166.485
 20
74.4029
 30
0.000000
  70
    32
  0
VERTEX
  8
0
  5
77F
 10
166.486
 20
74.4092
 30
0.000000
  70
    32
  0
VERTEX
  8
0
  5
780
 10
166.488
 20
74.4155
 30
0.000000
  70
    32
  0
VERTEX
  8
0
  5
781
 10
166.489
 20
74.4218
 30
0.000000
  70
    32
  0
VERTEX
  8
0
  5
782
 10
166.490
 20
74.4281
 30
0.000000
  70
    32
  0
VERTEX
  8
0
  5
783
 10
166.492
 20
74.4344
 30
0.000000
  70
    32
  0
VERTEX
  8
0
  5
784
 10
166.493
 20
74.4407
 30
0.000000
  70
    32
  0
VERTEX
  8
0
  5
785
 10
166.494
 20
74.4470
 30
0.000000
  70
    32
  0
VERTEX
  8
0
  5
786
 10
166.495
 20
74.4533
 30
0.000000
  70
    32
  0
VERTEX
  8
0
  5
787
 10
166.497
 20
74.4596
 30
0.000000
  70
    32
  0
VERTEX
  8
0
  5
788
 10
166.498
 20
74.4659
 30
0.000000
  70
    32
  0
VERTEX
  8
0
  5
789
 10
166.499
 20
74.4722
 30
0.000000
  70
    32
  0
VERTEX
  8
0
  5
78A
 10
166.500
 20
74.4786
 30
0.000000
  70
    32
  0
VERTEX
  8
0
  5
78B
 10
166.502
 20
74.4849
 30
0.000000
  70
    32
  0
VERTEX
  8
0
  5
78C
 10
166.503
 20
74.4912
 30
0.000000
  70
    32
  0
VERTEX
  8
0
  5
78D
 10
166.504
 20
74.4975
 30
0.000000
  70
    32
  0
VERTEX
  8
0
  5
78E
 10
166.505
 20
74.5039
 30
0.000000
  70
    32
  0
VERTEX
  8
0
  5
78F
 10
166.506
 20
74.5102
 30
0.000000
  70
    32
  0
VERTEX
  8
0
  5
790
 10
166.507
 20
74.5165
 30
0.000000
  70
    32
  0
VERTEX
  8
0
  5
791
 10
166.509
 20
74.5229
 30
0.000000
  70
    32
  0
VERTEX
  8
0
  5
792
 10
166.510
 20
74.5292
 30
0.000000
  70
    32
  0
VERTEX
  8
0
  5
793
 10
166.511
 20
74.5355
 30
0.000000
  70
    32
  0
VERTEX
  8
0
  5
794
 10
166.512
 20
74.5419
 30
0.000000
  70
    32
  0
VERTEX
  8
0
  5
795
 10
166.513
 20
74.5482
 30
0.000000
  70
    32
  0
VERTEX
  8
0
  5
796
 10
166.514
 20
74.5546
 30
0.000000
  70
    32
  0
VERTEX
  8
0
  5
797
 10
166.515
 20
74.5609
 30
0.000000
  70
    32
  0
VERTEX
  8
0
  5
798
 10
166.516
 20
74.5673
 30
0.000000
  70
    32
  0
VERTEX
  8
0
  5
799
 10
166.517
 20
74.5736
 30
0.000000
  70
    32
  0
VERTEX
  8
0
  5
79A
 10
166.518
 20
74.5800
 30
0.000000
  70
    32
  0
VERTEX
  8
0
  5
79B
 10
166.519
 20
74.5864
 30
0.000000
  70
    32
  0
VERTEX
  8
0
  5
79C
 10
166.520
 20
74.5927
 30
0.000000
  70
    32
  0
VERTEX
  8
0
  5
79D
 10
166.521
 20
74.5991
 30
0.000000
  70
    32
  0
VERTEX
  8
0
  5
79E
 10
166.522
 20
74.6054
 30
0.000000
  70
    32
  0
VERTEX
  8
0
  5
79F
 10
166.523
 20
74.6118
 30
0.000000
  70
    32
  0
VERTEX
  8
0
  5
7A0
 10
166.524
 20
74.6182
 30
0.000000
  70
    32
  0
VERTEX
  8
0
  5
7A1
 10
166.525
 20
74.6246
 30
0.000000
  70
    32
  0
VERTEX
  8
0
  5
7A2
 10
166.525
 20
74.6309
 30
0.000000
  70
    32
  0
VERTEX
  8
0
  5
7A3
 10
166.526
 20
74.6373
 30
0.000000
  70
    32
  0
VERTEX
  8
0
  5
7A4
 10
166.527
 20
74.6437
 30
0.000000
  70
    32
  0
VERTEX
  8
0
  5
7A5
 10
166.528
 20
74.6501
 30
0.000000
  70
    32
  0
VERTEX
  8
0
  5
7A6
 10
166.529
 20
74.6564
 30
0.000000
  70
    32
  0
VERTEX
  8
0
  5
7A7
 10
166.530
 20
74.6628
 30
0.000000
  70
    32
  0
VERTEX
  8
0
  5
7A8
 10
166.530
 20
74.6692
 30
0.000000
  70
    32
  0
VERTEX
  8
0
  5
7A9
 10
166.531
 20
74.6756
 30
0.000000
  70
    32
  0
VERTEX
  8
0
  5
7AA
 10
166.532
 20
74.6820
 30
0.000000
  70
    32
  0
VERTEX
  8
0
  5
7AB
 10
166.533
 20
74.6884
 30
0.000000
  70
    32
  0
VERTEX
  8
0
  5
7AC
 10
166.533
 20
74.6948
 30
0.000000
  70
    32
  0
VERTEX
  8
0
  5
7AD
 10
166.534
 20
74.7011
 30
0.000000
  70
    32
  0
VERTEX
  8
0
  5
7AE
 10
166.535
 20
74.7075
 30
0.000000
  70
    32
  0
VERTEX
  8
0
  5
7AF
 10
166.536
 20
74.7139
 30
0.000000
  70
    32
  0
VERTEX
  8
0
  5
7B0
 10
166.536
 20
74.7203
 30
0.000000
  70
    32
  0
VERTEX
  8
0
  5
7B1
 10
166.537
 20
74.7267
 30
0.000000
  70
    32
  0
VERTEX
  8
0
  5
7B2
 10
166.538
 20
74.7331
 30
0.000000
  70
    32
  0
VERTEX
  8
0
  5
7B3
 10
166.538
 20
74.7395
 30
0.000000
  70
    32
  0
VERTEX
  8
0
  5
7B4
 10
166.539
 20
74.7459
 30
0.000000
  70
    32
  0
VERTEX
  8
0
  5
7B5
 10
166.540
 20
74.7523
 30
0.000000
  70
    32
  0
VERTEX
  8
0
  5
7B6
 10
166.540
 20
74.7587
 30
0.000000
  70
    32
  0
VERTEX
  8
0
  5
7B7
 10
166.541
 20
74.7651
 30
0.000000
  70
    32
  0
VERTEX
  8
0
  5
7B8
 10
166.542
 20
74.7715
 30
0.000000
  70
    32
  0
VERTEX
  8
0
  5
7B9
 10
166.542
 20
74.7779
 30
0.000000
  70
    32
  0
VERTEX
  8
0
  5
7BA
 10
166.543
 20
74.7843
 30
0.000000
  70
    32
  0
SEQEND
  8
0
  5
7BB
  0
POLYLINE
  5
18F
  8
0
  6
CONTINUOUS
 62
     7
 66
     1
 10
0.0
 20
0.0
 30
0.0
 70
   128
  0
VERTEX
  5
41C
  8
0
  6
CONTINUOUS
 62
     7
 10
173.80420030958641
 20
95.644008620588508
 30
0.0
  0
VERTEX
  5
41D
  8
0
  6
CONTINUOUS
 62
     7
 10
174.0542571278356
 20
95.511418370397266
 30
0.0
  0
VERTEX
  5
41E
  8
0
  6
CONTINUOUS
 62
     7
 10
174.32289116322639
 20
95.391547914304255
 30
0.0
  0
VERTEX
  5
41F
  8
0
  6
CONTINUOUS
 62
     7
 10
174.6081669013779
 20
95.285260921692355
 30
0.0
  0
VERTEX
  5
420
  8
0
  6
CONTINUOUS
 62
     7
 10
174.90802892405981
 20
95.193323192778976
 30
0.0
  0
VERTEX
  5
421
  8
0
  6
CONTINUOUS
 62
     7
 10
175.22031671852741
 20
95.116397141007667
 30
0.0
  0
VERTEX
  5
422
  8
0
  6
CONTINUOUS
 62
     7
 10
175.54278024406531
 20
95.055037020344173
 30
0.0
  0
VERTEX
  5
423
  8
0
  6
CONTINUOUS
 62
     7
 10
175.87309614358281
 20
95.009684931863987
 30
0.0
  0
VERTEX
  5
424
  8
0
  6
CONTINUOUS
 62
     7
 10
176.20888448345491
 20
94.980667638403773
 30
0.0
  0
VERTEX
  5
425
  8
0
  6
CONTINUOUS
 62
     7
 10
176.5477259009981
 20
94.968194210227907
 30
0.0
  0
VERTEX
  5
426
  8
0
  6
CONTINUOUS
 62
     7
 10
176.8871790360345
 20
94.972354518672191
 30
0.0
  0
VERTEX
  5
427
  8
0
  6
CONTINUOUS
 62
     7
 10
177.2247981209475
 20
94.993118588618984
 30
0.0
  0
VERTEX
  5
428
  8
0
  6
CONTINUOUS
 62
     7
 10
177.55815060249401
 20
95.030336814468484
 30
0.0
  0
VERTEX
  5
429
  8
0
  6
CONTINUOUS
 62
     7
 10
177.88483466840549
 20
95.083741038050576
 30
0.0
  0
VERTEX
  5
42A
  8
0
  6
CONTINUOUS
 62
     7
 10
178.2024965525012
 20
95.152946480710654
 30
0.0
  0
VERTEX
  5
42B
  8
0
  6
CONTINUOUS
 62
     7
 10
178.50884749362709
 20
95.237454515648466
 30
0.0
  0
VERTEX
  5
42C
  8
0
  6
CONTINUOUS
 62
     7
 10
178.80168022623229
 20
95.336656260535776
 30
0.0
  0
VERTEX
  5
42D
  8
0
  6
CONTINUOUS
 62
     7
 10
179.0788848837681
 20
95.449836964527506
 30
0.0
  0
VERTEX
  5
42E
  8
0
  6
CONTINUOUS
 62
     7
 10
179.33846420032489
 20
95.576181158057864
 30
0.0
  0
VERTEX
  5
42F
  8
0
  6
CONTINUOUS
 62
     7
 10
179.57854790097861
 20
95.714778528317282
 30
0.0
  0
VERTEX
  5
430
  8
0
  6
CONTINUOUS
 62
     7
 10
179.7974061771645
 20
95.864630478077061
 30
0.0
  0
VERTEX
  5
431
  8
0
  6
CONTINUOUS
 62
     7
 10
179.99346214998761
 20
96.024657320605371
 30
0.0
  0
VERTEX
  5
432
  8
0
  6
CONTINUOUS
 62
     7
 10
180.165303231671
 20
96.193706058834806
 30
0.0
  0
VERTEX
  5
433
  8
0
  6
CONTINUOUS
 62
     7
 10
180.31169130328351
 20
96.370558692732615
 30
0.0
  0
VERTEX
  5
434
  8
0
  6
CONTINUOUS
 62
     7
 10
180.43157163541471
 20
96.553940995019033
 30
0.0
  0
VERTEX
  5
435
  8
0
  6
CONTINUOUS
 62
     7
 10
180.52408048752449
 20
96.742531692003894
 30
0.0
  0
VERTEX
  5
436
  8
0
  6
CONTINUOUS
 62
     7
 10
180.58855133121361
 20
96.934971983393893
 30
0.0
  0
VERTEX
  5
437
  8
0
  6
CONTINUOUS
 62
     7
 10
180.6245196525758
 20
97.12987533247977
 30
0.0
  0
VERTEX
  5
438
  8
0
  6
CONTINUOUS
 62
     7
 10
180.6317262990317
 20
97.325837456165161
 30
0.0
  0
VERTEX
  5
439
  8
0
  6
CONTINUOUS
 62
     7
 10
180.61011934652819
 20
97.52144644285849
 30
0.0
  0
VERTEX
  5
43A
  8
0
  6
CONTINUOUS
 62
     7
 10
180.5598544736533
 20
97.715292925328228
 30
0.0
  0
VERTEX
  5
43B
  8
0
  6
CONTINUOUS
 62
     7
 10
180.481293839968
 20
97.90598023522621
 30
0.0
  0
VERTEX
  5
43C
  8
0
  6
CONTINUOUS
 62
     7
 10
180.375003476638
 20
98.092134466115027
 30
0.0
  0
VERTEX
  5
43D
  8
0
  6
CONTINUOUS
 62
     7
 10
180.24174920816691
 20
98.272414372495419
 30
0.0
  0
VERTEX
  5
43E
  8
0
  6
CONTINUOUS
 62
     7
 10
180.0824911346125
 20
98.445521033510801
 30
0.0
  0
VERTEX
  5
43F
  8
0
  6
CONTINUOUS
 62
     7
 10
179.8983767140441
 20
98.610207211701834
 30
0.0
  0
VERTEX
  5
440
  8
0
  6
CONTINUOUS
 62
     7
 10
179.69073249508091
 20
98.765286339380864
 30
0.0
  0
VERTEX
  5
441
  8
0
  6
CONTINUOUS
 62
     7
 10
179.46105455907869
 20
98.909641067879363
 30
0.0
  0
VERTEX
  5
442
  8
0
  6
CONTINUOUS
 62
     7
 10
179.2109977408295
 20
99.042231318070591
 30
0.0
  0
VERTEX
  5
443
  8
0
  6
CONTINUOUS
 62
     7
 10
178.94236370543871
 20
99.162101774163631
 30
0.0
  0
VERTEX
  5
444
  8
0
  6
CONTINUOUS
 62
     7
 10
178.6570879672872
 20
99.268388766775502
 30
0.0
  0
VERTEX
  5
445
  8
0
  6
CONTINUOUS
 62
     7
 10
178.35722594460529
 20
99.360326495688881
 30
0.0
  0
VERTEX
  5
446
  8
0
  6
CONTINUOUS
 62
     7
 10
178.04493815013771
 20
99.437252547460204
 30
0.0
  0
VERTEX
  5
447
  8
0
  6
CONTINUOUS
 62
     7
 10
177.72247462459981
 20
99.498612668123684
 30
0.0
  0
VERTEX
  5
448
  8
0
  6
CONTINUOUS
 62
     7
 10
177.3921587250822
 20
99.543964756603899
 30
0.0
  0
VERTEX
  5
449
  8
0
  6
CONTINUOUS
 62
     7
 10
177.05637038521019
 20
99.572982050064084
 30
0.0
  0
VERTEX
  5
44A
  8
0
  6
CONTINUOUS
 62
     7
 10
176.71752896766711
 20
99.585455478239965
 30
0.0
  0
VERTEX
  5
44B
  8
0
  6
CONTINUOUS
 62
     7
 10
176.37807583263071
 20
99.581295169795681
 30
0.0
  0
VERTEX
  5
44C
  8
0
  6
CONTINUOUS
 62
     7
 10
176.0404567477176
 20
99.560531099848887
 30
0.0
  0
VERTEX
  5
44D
  8
0
  6
CONTINUOUS
 62
     7
 10
175.7071042661712
 20
99.523312873999373
 30
0.0
  0
VERTEX
  5
44E
  8
0
  6
CONTINUOUS
 62
     7
 10
175.38042020025969
 20
99.469908650417267
 30
0.0
  0
VERTEX
  5
44F
  8
0
  6
CONTINUOUS
 62
     7
 10
175.06275831616389
 20
99.400703207757203
 30
0.0
  0
VERTEX
  5
450
  8
0
  6
CONTINUOUS
 62
     7
 10
174.75640737503801
 20
99.316195172819405
 30
0.0
  0
VERTEX
  5
451
  8
0
  6
CONTINUOUS
 62
     7
 10
174.4635746424328
 20
99.216993427932096
 30
0.0
  0
VERTEX
  5
452
  8
0
  6
CONTINUOUS
 62
     7
 10
174.186369984897
 20
99.103812723940337
 30
0.0
  0
VERTEX
  5
453
  8
0
  6
CONTINUOUS
 62
     7
 10
173.9267906683402
 20
98.977468530409993
 30
0.0
  0
VERTEX
  5
454
  8
0
  6
CONTINUOUS
 62
     7
 10
173.68670696768649
 20
98.838871160150603
 30
0.0
  0
VERTEX
  5
455
  8
0
  6
CONTINUOUS
 62
     7
 10
173.46784869150059
 20
98.689019210390796
 30
0.0
  0
VERTEX
  5
456
  8
0
  6
CONTINUOUS
 62
     7
 10
173.27179271867749
 20
98.528992367862486
 30
0.0
  0
VERTEX
  5
457
  8
0
  6
CONTINUOUS
 62
     7
 10
173.09995163699409
 20
98.359943629633079
 30
0.0
  0
VERTEX
  5
458
  8
0
  6
CONTINUOUS
 62
     7
 10
172.95356356538159
 20
98.183090995735256
 30
0.0
  0
VERTEX
  5
459
  8
0
  6
CONTINUOUS
 62
     7
 10
172.83368323325041
 20
97.999708693448824
 30
0.0
  0
VERTEX
  5
45A
  8
0
  6
CONTINUOUS
 62
     7
 10
172.74117438114061
 20
97.811117996463963
 30
0.0
  0
VERTEX
  5
45B
  8
0
  6
CONTINUOUS
 62
     7
 10
172.6767035374516
 20
97.618677705073978
 30
0.0
  0
VERTEX
  5
45C
  8
0
  6
CONTINUOUS
 62
     7
 10
172.6407352160893
 20
97.423774355988087
 30
0.0
  0
VERTEX
  5
45D
  8
0
  6
CONTINUOUS
 62
     7
 10
172.6335285696334
 20
97.227812232302696
 30
0.0
  0
VERTEX
  5
45E
  8
0
  6
CONTINUOUS
 62
     7
 10
172.65513552213699
 20
97.032203245609381
 30
0.0
  0
VERTEX
  5
45F
  8
0
  6
CONTINUOUS
 62
     7
 10
172.70540039501179
 20
96.838356763139615
 30
0.0
  0
VERTEX
  5
460
  8
0
  6
CONTINUOUS
 62
     7
 10
172.78396102869721
 20
96.647669453241676
 30
0.0
  0
VERTEX
  5
461
  8
0
  6
CONTINUOUS
 62
     7
 10
172.8902513920271
 20
96.461515222352844
 30
0.0
  0
VERTEX
  5
462
  8
0
  6
CONTINUOUS
 62
     7
 10
173.02350566049819
 20
96.281235315972438
 30
0.0
  0
VERTEX
  5
463
  8
0
  6
CONTINUOUS
 62
     7
 10
173.1827637340526
 20
96.108128654957042
 30
0.0
  0
VERTEX
  5
464
  8
0
  6
CONTINUOUS
 62
     7
 10
173.36687815462111
 20
95.943442476766037
 30
0.0
  0
VERTEX
  5
465
  8
0
  6
CONTINUOUS
 62
     7
 10
173.57452237358419
 20
95.788363349086978
 30
0.0
  0
VERTEX
  5
466
  8
0
  6
CONTINUOUS
 62
     7
 10
173.80420030958641
 20
95.644008620588508
 30
0.0
  0
SEQEND
  5
467
  8
0
  6
CONTINUOUS
 62
     7
  0
LINE
  5
190
  8
0
  6
CONTINUOUS
 62
     7
 10
167.08668588831421
 20
106.053212046328
 30
0.0
 11
119.0034247676289
 21
78.295336244355994
 31
0.0
  0
ARC
  5
191
  8
0
  6
CONTINUOUS
 62
     7
 10
171.3293265754335
 20
97.897855945102421
 30
0.0
 40
9.1929229920520097
 50
62.515308001450371
 51
117.48469199854959
  0
LINE
  5
192
  8
0
  6
CONTINUOUS
 62
     7
 10
191.83542322984329
 20
96.664518760366875
 30
0.0
 11
175.57196726255279
 21
106.053212046328
 31
0.0
  0
POLYLINE
  5
193
  8
0
  6
CONTINUOUS
 62
     7
 66
     1
 10
0.0
 20
0.0
 30
0.0
 70
   128
  0
VERTEX
  5
468
  8
0
  6
CONTINUOUS
 62
     7
 10
191.83542322984329
 20
91.766070089430627
 30
0.0
  0
VERTEX
  5
469
  8
0
  6
CONTINUOUS
 62
     7
 10
192.12727998884961
 20
91.947036095895143
 30
0.0
  0
VERTEX
  5
46A
  8
0
  6
CONTINUOUS
 62
     7
 10
192.39602998827019
 20
92.139560626872964
 30
0.0
  0
VERTEX
  5
46B
  8
0
  6
CONTINUOUS
 62
     7
 10
192.6403037397111
 20
92.342662621484763
 30
0.0
  0
VERTEX
  5
46C
  8
0
  6
CONTINUOUS
 62
     7
 10
192.85885648012751
 20
92.555307118521156
 30
0.0
  0
VERTEX
  5
46D
  8
0
  6
CONTINUOUS
 62
     7
 10
193.05057451485109
 20
92.776410530367684
 30
0.0
  0
VERTEX
  5
46E
  8
0
  6
CONTINUOUS
 62
     7
 10
193.21448089272261
 20
93.004846164719069
 30
0.0
  0
VERTEX
  5
46F
  8
0
  6
CONTINUOUS
 62
     7
 10
193.34974038441101
 20
93.239449965944772
 30
0.0
  0
VERTEX
  5
470
  8
0
  6
CONTINUOUS
 62
     7
 10
193.45566373855101
 20
93.479026446849716
 30
0.0
  0
VERTEX
  5
471
  8
0
  6
CONTINUOUS
 62
     7
 10
193.5317111940096
 20
93.722354780603084
 30
0.0
  0
VERTEX
  5
472
  8
0
  6
CONTINUOUS
 62
     7
 10
193.57749523038561
 20
93.968195021791928
 30
0.0
  0
VERTEX
  5
473
  8
0
  6
CONTINUOUS
 62
     7
 10
193.592782542724
 20
94.215294424898744
 30
0.0
  0
VERTEX
  5
474
  8
0
  6
CONTINUOUS
 62
     7
 10
193.57749523038561
 20
94.462393828005574
 30
0.0
  0
VERTEX
  5
475
  8
0
  6
CONTINUOUS
 62
     7
 10
193.5317111940096
 20
94.708234069194404
 30
0.0
  0
VERTEX
  5
476
  8
0
  6
CONTINUOUS
 62
     7
 10
193.45566373855101
 20
94.951562402947786
 30
0.0
  0
VERTEX
  5
477
  8
0
  6
CONTINUOUS
 62
     7
 10
193.34974038441101
 20
95.191138883852744
 30
0.0
  0
VERTEX
  5
478
  8
0
  6
CONTINUOUS
 62
     7
 10
193.21448089272261
 20
95.425742685078447
 30
0.0
  0
VERTEX
  5
479
  8
0
  6
CONTINUOUS
 62
     7
 10
193.05057451485121
 20
95.654178319429818
 30
0.0
  0
VERTEX
  5
47A
  8
0
  6
CONTINUOUS
 62
     7
 10
192.85885648012751
 20
95.875281731276374
 30
0.0
  0
VERTEX
  5
47B
  8
0
  6
CONTINUOUS
 62
     7
 10
192.6403037397111
 20
96.087926228312767
 30
0.0
  0
VERTEX
  5
47C
  8
0
  6
CONTINUOUS
 62
     7
 10
192.39602998827019
 20
96.291028222924552
 30
0.0
  0
VERTEX
  5
47D
  8
0
  6
CONTINUOUS
 62
     7
 10
192.12727998884961
 20
96.483552753902373
 30
0.0
  0
VERTEX
  5
47E
  8
0
  6
CONTINUOUS
 62
     7
 10
191.83542322984329
 20
96.664518760366875
 30
0.0
  0
SEQEND
  5
47F
  8
0
  6
CONTINUOUS
 62
     7
  0
LINE
  5
194
  8
0
  6
CONTINUOUS
 62
     7
 10
143.75216210915801
 20
64.008194287458579
 30
0.0
 11
191.83542322984329
 21
91.766070089430627
 31
0.0
  0
ARC
  5
195
  8
0
  6
CONTINUOUS
 62
     7
 10
139.50952142203869
 20
72.163550388684214
 30
0.0
 40
9.1929229920519973
 50
242.51530800145119
 51
297.48469199855049
  0
LINE
  5
196
  8
0
  6
CONTINUOUS
 62
     7
 10
119.0034247676289
 20
73.396887573419747
 30
0.0
 11
135.2668807349194
 21
64.008194287458579
 31
0.0
  0
POLYLINE
  5
197
  8
0
  6
CONTINUOUS
 62
     7
 66
     1
 10
0.0
 20
0.0
 30
0.0
 70
   128
  0
VERTEX
  5
480
  8
0
  6
CONTINUOUS
 62
     7
 10
119.0034247676289
 20
78.295336244355994
 30
0.0
  0
VERTEX
  5
481
  8
0
  6
CONTINUOUS
 62
     7
 10
118.71156800862261
 20
78.114370237891478
 30
0.0
  0
VERTEX
  5
482
  8
0
  6
CONTINUOUS
 62
     7
 10
118.442818009202
 20
77.921845706913672
 30
0.0
  0
VERTEX
  5
483
  8
0
  6
CONTINUOUS
 62
     7
 10
118.1985442577611
 20
77.718743712301873
 30
0.0
  0
VERTEX
  5
484
  8
0
  6
CONTINUOUS
 62
     7
 10
117.9799915173446
 20
77.506099215265493
 30
0.0
  0
VERTEX
  5
485
  8
0
  6
CONTINUOUS
 62
     7
 10
117.78827348262099
 20
77.284995803418951
 30
0.0
  0
VERTEX
  5
486
  8
0
  6
CONTINUOUS
 62
     7
 10
117.6243671047496
 20
77.056560169067566
 30
0.0
  0
VERTEX
  5
487
  8
0
  6
CONTINUOUS
 62
     7
 10
117.48910761306119
 20
76.821956367841864
 30
0.0
  0
VERTEX
  5
488
  8
0
  6
CONTINUOUS
 62
     7
 10
117.3831842589212
 20
76.582379886936906
 30
0.0
  0
VERTEX
  5
489
  8
0
  6
CONTINUOUS
 62
     7
 10
117.3071368034626
 20
76.339051553183538
 30
0.0
  0
VERTEX
  5
48A
  8
0
  6
CONTINUOUS
 62
     7
 10
117.26135276708661
 20
76.093211311994708
 30
0.0
  0
VERTEX
  5
48B
  8
0
  6
CONTINUOUS
 62
     7
 10
117.24606545474821
 20
75.846111908887877
 30
0.0
  0
VERTEX
  5
48C
  8
0
  6
CONTINUOUS
 62
     7
 10
117.26135276708661
 20
75.599012505781062
 30
0.0
  0
VERTEX
  5
48D
  8
0
  6
CONTINUOUS
 62
     7
 10
117.3071368034626
 20
75.353172264592231
 30
0.0
  0
VERTEX
  5
48E
  8
0
  6
CONTINUOUS
 62
     7
 10
117.3831842589212
 20
75.109843930838849
 30
0.0
  0
VERTEX
  5
48F
  8
0
  6
CONTINUOUS
 62
     7
 10
117.48910761306119
 20
74.870267449933891
 30
0.0
  0
VERTEX
  5
490
  8
0
  6
CONTINUOUS
 62
     7
 10
117.6243671047496
 20
74.635663648708189
 30
0.0
  0
VERTEX
  5
491
  8
0
  6
CONTINUOUS
 62
     7
 10
117.78827348262099
 20
74.407228014356818
 30
0.0
  0
VERTEX
  5
492
  8
0
  6
CONTINUOUS
 62
     7
 10
117.9799915173446
 20
74.186124602510262
 30
0.0
  0
VERTEX
  5
493
  8
0
  6
CONTINUOUS
 62
     7
 10
118.1985442577611
 20
73.973480105473882
 30
0.0
  0
VERTEX
  5
494
  8
0
  6
CONTINUOUS
 62
     7
 10
118.442818009202
 20
73.770378110862097
 30
0.0
  0
VERTEX
  5
495
  8
0
  6
CONTINUOUS
 62
     7
 10
118.71156800862261
 20
73.577853579884277
 30
0.0
  0
VERTEX
  5
496
  8
0
  6
CONTINUOUS
 62
     7
 10
119.0034247676289
 20
73.396887573419747
 30
0.0
  0
SEQEND
  5
497
  8
0
  6
CONTINUOUS
 62
     7
  0
POLYLINE
  5
198
  8
0
  6
CONTINUOUS
 62
     7
 66
     1
 10
0.0
 20
0.0
 30
0.0
 70
   128
  0
VERTEX
  5
498
  8
0
  6
CONTINUOUS
 62
     7
 10
131.37779343839341
 20
71.151765265907287
 30
0.0
  0
VERTEX
  5
499
  8
0
  6
CONTINUOUS
 62
     7
 10
131.62785025664269
 20
71.019175015716044
 30
0.0
  0
VERTEX
  5
49A
  8
0
  6
CONTINUOUS
 62
     7
 10
131.89648429203339
 20
70.899304559623019
 30
0.0
  0
VERTEX
  5
49B
  8
0
  6
CONTINUOUS
 62
     7
 10
132.18176003018499
 20
70.793017567011148
 30
0.0
  0
VERTEX
  5
49C
  8
0
  6
CONTINUOUS
 62
     7
 10
132.4816220528669
 20
70.701079838097755
 30
0.0
  0
VERTEX
  5
49D
  8
0
  6
CONTINUOUS
 62
     7
 10
132.7939098473345
 20
70.624153786326445
 30
0.0
  0
VERTEX
  5
49E
  8
0
  6
CONTINUOUS
 62
     7
 10
133.11637337287229
 20
70.562793665662952
 30
0.0
  0
VERTEX
  5
49F
  8
0
  6
CONTINUOUS
 62
     7
 10
133.4466892723899
 20
70.517441577182751
 30
0.0
  0
VERTEX
  5
4A0
  8
0
  6
CONTINUOUS
 62
     7
 10
133.782477612262
 20
70.488424283722551
 30
0.0
  0
VERTEX
  5
4A1
  8
0
  6
CONTINUOUS
 62
     7
 10
134.12131902980511
 20
70.475950855546685
 30
0.0
  0
VERTEX
  5
4A2
  8
0
  6
CONTINUOUS
 62
     7
 10
134.4607721648415
 20
70.480111163990969
 30
0.0
  0
VERTEX
  5
4A3
  8
0
  6
CONTINUOUS
 62
     7
 10
134.79839124975459
 20
70.500875233937762
 30
0.0
  0
VERTEX
  5
4A4
  8
0
  6
CONTINUOUS
 62
     7
 10
135.13174373130099
 20
70.538093459787262
 30
0.0
  0
VERTEX
  5
4A5
  8
0
  6
CONTINUOUS
 62
     7
 10
135.45842779721249
 20
70.591497683369354
 30
0.0
  0
VERTEX
  5
4A6
  8
0
  6
CONTINUOUS
 62
     7
 10
135.77608968130829
 20
70.660703126029432
 30
0.0
  0
VERTEX
  5
4A7
  8
0
  6
CONTINUOUS
 62
     7
 10
136.08244062243421
 20
70.74521116096723
 30
0.0
  0
VERTEX
  5
4A8
  8
0
  6
CONTINUOUS
 62
     7
 10
136.37527335503941
 20
70.844412905854554
 30
0.0
  0
VERTEX
  5
4A9
  8
0
  6
CONTINUOUS
 62
     7
 10
136.65247801257519
 20
70.957593609846285
 30
0.0
  0
VERTEX
  5
4AA
  8
0
  6
CONTINUOUS
 62
     7
 10
136.91205732913201
 20
71.083937803376628
 30
0.0
  0
VERTEX
  5
4AB
  8
0
  6
CONTINUOUS
 62
     7
 10
137.1521410297857
 20
71.222535173636047
 30
0.0
  0
VERTEX
  5
4AC
  8
0
  6
CONTINUOUS
 62
     7
 10
137.37099930597159
 20
71.372387123395825
 30
0.0
  0
VERTEX
  5
4AD
  8
0
  6
CONTINUOUS
 62
     7
 10
137.5670552787947
 20
71.53241396592415
 30
0.0
  0
VERTEX
  5
4AE
  8
0
  6
CONTINUOUS
 62
     7
 10
137.73889636047809
 20
71.701462704153556
 30
0.0
  0
VERTEX
  5
4AF
  8
0
  6
CONTINUOUS
 62
     7
 10
137.8852844320906
 20
71.878315338051365
 30
0.0
  0
VERTEX
  5
4B0
  8
0
  6
CONTINUOUS
 62
     7
 10
138.0051647642218
 20
72.061697640337798
 30
0.0
  0
VERTEX
  5
4B1
  8
0
  6
CONTINUOUS
 62
     7
 10
138.0976736163316
 20
72.250288337322687
 30
0.0
  0
VERTEX
  5
4B2
  8
0
  6
CONTINUOUS
 62
     7
 10
138.16214446002061
 20
72.442728628712644
 30
0.0
  0
VERTEX
  5
4B3
  8
0
  6
CONTINUOUS
 62
     7
 10
138.19811278138289
 20
72.637631977798534
 30
0.0
  0
VERTEX
  5
4B4
  8
0
  6
CONTINUOUS
 62
     7
 10
138.2053194278387
 20
72.833594101483939
 30
0.0
  0
VERTEX
  5
4B5
  8
0
  6
CONTINUOUS
 62
     7
 10
138.18371247533531
 20
73.029203088177255
 30
0.0
  0
VERTEX
  5
4B6
  8
0
  6
CONTINUOUS
 62
     7
 10
138.13344760246039
 20
73.223049570647007
 30
0.0
  0
VERTEX
  5
4B7
  8
0
  6
CONTINUOUS
 62
     7
 10
138.05488696877501
 20
73.413736880544974
 30
0.0
  0
VERTEX
  5
4B8
  8
0
  6
CONTINUOUS
 62
     7
 10
137.94859660544509
 20
73.599891111433791
 30
0.0
  0
VERTEX
  5
4B9
  8
0
  6
CONTINUOUS
 62
     7
 10
137.815342336974
 20
73.780171017814183
 30
0.0
  0
VERTEX
  5
4BA
  8
0
  6
CONTINUOUS
 62
     7
 10
137.65608426341959
 20
73.953277678829579
 30
0.0
  0
VERTEX
  5
4BB
  8
0
  6
CONTINUOUS
 62
     7
 10
137.47196984285119
 20
74.117963857020598
 30
0.0
  0
VERTEX
  5
4BC
  8
0
  6
CONTINUOUS
 62
     7
 10
137.264325623888
 20
74.273042984699643
 30
0.0
  0
VERTEX
  5
4BD
  8
0
  6
CONTINUOUS
 62
     7
 10
137.03464768788581
 20
74.417397713198142
 30
0.0
  0
VERTEX
  5
4BE
  8
0
  6
CONTINUOUS
 62
     7
 10
136.78459086963659
 20
74.54998796338937
 30
0.0
  0
VERTEX
  5
4BF
  8
0
  6
CONTINUOUS
 62
     7
 10
136.5159568342458
 20
74.669858419482395
 30
0.0
  0
VERTEX
  5
4C0
  8
0
  6
CONTINUOUS
 62
     7
 10
136.2306810960942
 20
74.77614541209428
 30
0.0
  0
VERTEX
  5
4C1
  8
0
  6
CONTINUOUS
 62
     7
 10
135.93081907341241
 20
74.868083141007645
 30
0.0
  0
VERTEX
  5
4C2
  8
0
  6
CONTINUOUS
 62
     7
 10
135.6185312789448
 20
74.945009192778983
 30
0.0
  0
VERTEX
  5
4C3
  8
0
  6
CONTINUOUS
 62
     7
 10
135.2960677534069
 20
75.006369313442462
 30
0.0
  0
VERTEX
  5
4C4
  8
0
  6
CONTINUOUS
 62
     7
 10
134.96575185388929
 20
75.051721401922677
 30
0.0
  0
VERTEX
  5
4C5
  8
0
  6
CONTINUOUS
 62
     7
 10
134.62996351401731
 20
75.080738695382877
 30
0.0
  0
VERTEX
  5
4C6
  8
0
  6
CONTINUOUS
 62
     7
 10
134.29112209647411
 20
75.093212123558743
 30
0.0
  0
VERTEX
  5
4C7
  8
0
  6
CONTINUOUS
 62
     7
 10
133.95166896143769
 20
75.089051815114445
 30
0.0
  0
VERTEX
  5
4C8
  8
0
  6
CONTINUOUS
 62
     7
 10
133.61404987652469
 20
75.068287745167666
 30
0.0
  0
VERTEX
  5
4C9
  8
0
  6
CONTINUOUS
 62
     7
 10
133.28069739497829
 20
75.031069519318166
 30
0.0
  0
VERTEX
  5
4CA
  8
0
  6
CONTINUOUS
 62
     7
 10
132.9540133290667
 20
74.977665295736045
 30
0.0
  0
VERTEX
  5
4CB
  8
0
  6
CONTINUOUS
 62
     7
 10
132.63635144497101
 20
74.908459853075982
 30
0.0
  0
VERTEX
  5
4CC
  8
0
  6
CONTINUOUS
 62
     7
 10
132.33000050384501
 20
74.823951818138184
 30
0.0
  0
VERTEX
  5
4CD
  8
0
  6
CONTINUOUS
 62
     7
 10
132.03716777123989
 20
74.72475007325086
 30
0.0
  0
VERTEX
  5
4CE
  8
0
  6
CONTINUOUS
 62
     7
 10
131.75996311370409
 20
74.611569369259115
 30
0.0
  0
VERTEX
  5
4CF
  8
0
  6
CONTINUOUS
 62
     7
 10
131.50038379714729
 20
74.485225175728772
 30
0.0
  0
VERTEX
  5
4D0
  8
0
  6
CONTINUOUS
 62
     7
 10
131.26030009649361
 20
74.346627805469353
 30
0.0
  0
VERTEX
  5
4D1
  8
0
  6
CONTINUOUS
 62
     7
 10
131.04144182030771
 20
74.196775855709561
 30
0.0
  0
VERTEX
  5
4D2
  8
0
  6
CONTINUOUS
 62
     7
 10
130.84538584748461
 20
74.03674901318125
 30
0.0
  0
VERTEX
  5
4D3
  8
0
  6
CONTINUOUS
 62
     7
 10
130.67354476580121
 20
73.867700274951844
 30
0.0
  0
VERTEX
  5
4D4
  8
0
  6
CONTINUOUS
 62
     7
 10
130.5271566941887
 20
73.69084764105402
 30
0.0
  0
VERTEX
  5
4D5
  8
0
  6
CONTINUOUS
 62
     7
 10
130.4072763620575
 20
73.507465338767574
 30
0.0
  0
VERTEX
  5
4D6
  8
0
  6
CONTINUOUS
 62
     7
 10
130.3147675099477
 20
73.318874641782713
 30
0.0
  0
VERTEX
  5
4D7
  8
0
  6
CONTINUOUS
 62
     7
 10
130.25029666625861
 20
73.126434350392728
 30
0.0
  0
VERTEX
  5
4D8
  8
0
  6
CONTINUOUS
 62
     7
 10
130.21432834489639
 20
72.931531001306865
 30
0.0
  0
VERTEX
  5
4D9
  8
0
  6
CONTINUOUS
 62
     7
 10
130.20712169844049
 20
72.735568877621461
 30
0.0
  0
VERTEX
  5
4DA
  8
0
  6
CONTINUOUS
 62
     7
 10
130.22872865094399
 20
72.539959890928131
 30
0.0
  0
VERTEX
  5
4DB
  8
0
  6
CONTINUOUS
 62
     7
 10
130.27899352381891
 20
72.346113408458393
 30
0.0
  0
VERTEX
  5
4DC
  8
0
  6
CONTINUOUS
 62
     7
 10
130.35755415750421
 20
72.155426098560412
 30
0.0
  0
VERTEX
  5
4DD
  8
0
  6
CONTINUOUS
 62
     7
 10
130.46384452083419
 20
71.969271867671608
 30
0.0
  0
VERTEX
  5
4DE
  8
0
  6
CONTINUOUS
 62
     7
 10
130.59709878930531
 20
71.788991961291217
 30
0.0
  0
VERTEX
  5
4DF
  8
0
  6
CONTINUOUS
 62
     7
 10
130.75635686285969
 20
71.615885300275821
 30
0.0
  0
VERTEX
  5
4E0
  8
0
  6
CONTINUOUS
 62
     7
 10
130.94047128342811
 20
71.451199122084773
 30
0.0
  0
VERTEX
  5
4E1
  8
0
  6
CONTINUOUS
 62
     7
 10
131.14811550239131
 20
71.296119994405757
 30
0.0
  0
VERTEX
  5
4E2
  8
0
  6
CONTINUOUS
 62
     7
 10
131.37779343839341
 20
71.151765265907287
 30
0.0
  0
SEQEND
  5
4E3
  8
0
  6
CONTINUOUS
 62
     7
  0
ARC
  5
199
  8
0
  6
CONTINUOUS
 62
     7
 10
139.50952142203869
 20
71.142874373827013
 30
0.0
 40
9.1929229920519973
 50
242.5153080014511
 51
297.48469199855049
  0
LINE
  5
19A
  8
0
  6
CONTINUOUS
 62
     7
 10
143.75216210915801
 20
62.98751827260137
 30
0.0
 11
191.83542322984329
 21
90.745394074573426
 31
0.0
  0
LINE
  5
19B
  8
0
  6
CONTINUOUS
 62
     7
 10
119.0034247676289
 20
72.376211558562574
 30
0.0
 11
135.2668807349194
 21
62.987518272601392
 31
0.0
  0
POLYLINE
  5
19C
  8
0
  6
CONTINUOUS
 62
     7
 66
     1
 10
0.0
 20
0.0
 30
0.0
 70
   128
  0
VERTEX
  5
4E4
  8
0
  6
CONTINUOUS
 62
     7
 10
136.5097579525885
 20
70.896778688386519
 30
0.0
  0
VERTEX
  5
4E5
  8
0
  6
CONTINUOUS
 62
     7
 10
136.57609356518441
 20
70.958552503020343
 30
0.0
  0
VERTEX
  5
4E6
  8
0
  6
CONTINUOUS
 62
     7
 10
136.70507073877911
 20
71.101092744634215
 30
0.0
  0
VERTEX
  5
4E7
  8
0
  6
CONTINUOUS
 62
     7
 10
136.80840632808719
 20
71.250434341787454
 30
0.0
  0
VERTEX
  5
4E8
  8
0
  6
CONTINUOUS
 62
     7
 10
136.885039970127
 20
71.405044847601772
 30
0.0
  0
VERTEX
  5
4E9
  8
0
  6
CONTINUOUS
 62
     7
 10
136.93418530002921
 20
71.563337749066093
 30
0.0
  0
VERTEX
  5
4EA
  8
0
  6
CONTINUOUS
 62
     7
 10
136.95533802020481
 20
71.723688746806886
 30
0.0
  0
VERTEX
  5
4EB
  8
0
  6
CONTINUOUS
 62
     7
 10
136.94828107512069
 20
71.884452422597732
 30
0.0
  0
VERTEX
  5
4EC
  8
0
  6
CONTINUOUS
 62
     7
 10
136.9130868785829
 20
72.043979123577031
 30
0.0
  0
VERTEX
  5
4ED
  8
0
  6
CONTINUOUS
 62
     7
 10
136.85011657067321
 20
72.200631889918583
 30
0.0
  0
VERTEX
  5
4EE
  8
0
  6
CONTINUOUS
 62
     7
 10
136.7600163119634
 20
72.352803252254702
 30
0.0
  0
VERTEX
  5
4EF
  8
0
  6
CONTINUOUS
 62
     7
 10
136.6437106530328
 20
72.498931726487029
 30
0.0
  0
VERTEX
  5
4F0
  8
0
  6
CONTINUOUS
 62
     7
 10
136.50239304732881
 20
72.637517836726545
 30
0.0
  0
VERTEX
  5
4F1
  8
0
  6
CONTINUOUS
 62
     7
 10
136.33751360471919
 20
72.767139501945209
 30
0.0
  0
VERTEX
  5
4F2
  8
0
  6
CONTINUOUS
 62
     7
 10
136.15076421140259
 20
72.886466628451743
 30
0.0
  0
VERTEX
  5
4F3
  8
0
  6
CONTINUOUS
 62
     7
 10
135.94406116886699
 20
72.994274758452804
 30
0.0
  0
VERTEX
  5
4F4
  8
0
  6
CONTINUOUS
 62
     7
 10
135.7195255300424
 20
73.089457634646834
 30
0.0
  0
VERTEX
  5
4F5
  8
0
  6
CONTINUOUS
 62
     7
 10
135.47946133442869
 20
73.171038551921114
 30
0.0
  0
VERTEX
  5
4F6
  8
0
  6
CONTINUOUS
 62
     7
 10
135.2263319655315
 20
73.238180379667753
 30
0.0
  0
VERTEX
  5
4F7
  8
0
  6
CONTINUOUS
 62
     7
 10
134.96273487321449
 20
73.29019415187669
 30
0.0
  0
VERTEX
  5
4F8
  8
0
  6
CONTINUOUS
 62
     7
 10
134.69137492034861
 20
73.32654613685915
 30
0.0
  0
VERTEX
  5
4F9
  8
0
  6
CONTINUOUS
 62
     7
 10
134.41503662725901
 20
73.346863314057174
 30
0.0
  0
VERTEX
  5
4FA
  8
0
  6
CONTINUOUS
 62
     7
 10
134.13655559877839
 20
73.3509372017391
 30
0.0
  0
VERTEX
  5
4FB
  8
0
  6
CONTINUOUS
 62
     7
 10
133.8587894271038
 20
73.338725996304532
 30
0.0
  0
VERTEX
  5
4FC
  8
0
  6
CONTINUOUS
 62
     7
 10
133.58458836903429
 20
73.310355001245583
 30
0.0
  0
VERTEX
  5
4FD
  8
0
  6
CONTINUOUS
 62
     7
 10
133.31676609847921
 20
73.266115341363658
 30
0.0
  0
VERTEX
  5
4FE
  8
0
  6
CONTINUOUS
 62
     7
 10
133.0580708343557
 20
73.206460975434979
 30
0.0
  0
VERTEX
  5
4FF
  8
0
  6
CONTINUOUS
 62
     7
 10
132.8111571401443
 20
73.132004037979229
 30
0.0
  0
VERTEX
  5
500
  8
0
  6
CONTINUOUS
 62
     7
 10
132.5785586844753
 20
73.043508557931048
 30
0.0
  0
VERTEX
  5
501
  8
0
  6
CONTINUOUS
 62
     7
 10
132.3626622422598
 20
72.941882618669212
 30
0.0
  0
VERTEX
  5
502
  8
0
  6
CONTINUOUS
 62
     7
 10
132.1656832031496
 20
72.828169039852455
 30
0.0
  0
VERTEX
  5
503
  8
0
  6
CONTINUOUS
 62
     7
 10
131.98964283864109
 20
72.703534676678473
 30
0.0
  0
VERTEX
  5
504
  8
0
  6
CONTINUOUS
 62
     7
 10
131.8363475610949
 20
72.569258446370682
 30
0.0
  0
VERTEX
  5
505
  8
0
  6
CONTINUOUS
 62
     7
 10
131.70737038750019
 20
72.42671820475681
 30
0.0
  0
VERTEX
  5
506
  8
0
  6
CONTINUOUS
 62
     7
 10
131.60403479819209
 20
72.277376607603586
 30
0.0
  0
VERTEX
  5
507
  8
0
  6
CONTINUOUS
 62
     7
 10
131.52740115615231
 20
72.122766101789253
 30
0.0
  0
VERTEX
  5
508
  8
0
  6
CONTINUOUS
 62
     7
 10
131.47825582625009
 20
71.964473200324917
 30
0.0
  0
VERTEX
  5
509
  8
0
  6
CONTINUOUS
 62
     7
 10
131.4571031060745
 20
71.804122202584139
 30
0.0
  0
VERTEX
  5
50A
  8
0
  6
CONTINUOUS
 62
     7
 10
131.46416005115859
 20
71.643358526793293
 30
0.0
  0
VERTEX
  5
50B
  8
0
  6
CONTINUOUS
 62
     7
 10
131.4993542476964
 20
71.483831825813994
 30
0.0
  0
VERTEX
  5
50C
  8
0
  6
CONTINUOUS
 62
     7
 10
131.5623245556061
 20
71.327179059472442
 30
0.0
  0
VERTEX
  5
50D
  8
0
  6
CONTINUOUS
 62
     7
 10
131.65242481431591
 20
71.175007697136337
 30
0.0
  0
VERTEX
  5
50E
  8
0
  6
CONTINUOUS
 62
     7
 10
131.76873047324651
 20
71.028879222903996
 30
0.0
  0
VERTEX
  5
50F
  8
0
  6
CONTINUOUS
 62
     7
 10
131.9026831736914
 20
70.896778688386007
 30
0.0
  0
SEQEND
  5
510
  8
0
  6
CONTINUOUS
 62
     7
  0
ARC
  5
19D
  8
0
  6
CONTINUOUS
 62
     7
 10
120.29872606257
 20
75.160691320134404
 30
0.0
 40
3.0710149767266408
 50
186.2673353104403
 51
245.052805647176
  0
POLYLINE
  5
19E
  8
0
  6
CONTINUOUS
 62
     7
 10
171.70129758507531
 20
88.7045396700955
 30
0.0
 66
     1
 70
     8
  0
VERTEX
  8
0
  5
7BC
 10
171.701
 20
88.7045
 30
0.000000
  70
    32
  0
VERTEX
  8
0
  5
7BD
 10
171.673
 20
88.7045
 30
0.000000
  70
    32
  0
VERTEX
  8
0
  5
7BE
 10
171.644
 20
88.7043
 30
0.000000
  70
    32
  0
VERTEX
  8
0
  5
7BF
 10
171.615
 20
88.7041
 30
0.000000
  70
    32
  0
VERTEX
  8
0
  5
7C0
 10
171.587
 20
88.7037
 30
0.000000
  70
    32
  0
VERTEX
  8
0
  5
7C1
 10
171.558
 20
88.7033
 30
0.000000
  70
    32
  0
VERTEX
  8
0
  5
7C2
 10
171.530
 20
88.7027
 30
0.000000
  70
    32
  0
VERTEX
  8
0
  5
7C3
 10
171.501
 20
88.7021
 30
0.000000
  70
    32
  0
VERTEX
  8
0
  5
7C4
 10
171.472
 20
88.7013
 30
0.000000
  70
    32
  0
VERTEX
  8
0
  5
7C5
 10
171.444
 20
88.7004
 30
0.000000
  70
    32
  0
VERTEX
  8
0
  5
7C6
 10
171.415
 20
88.6995
 30
0.000000
  70
    32
  0
VERTEX
  8
0
  5
7C7
 10
171.387
 20
88.6984
 30
0.000000
  70
    32
  0
VERTEX
  8
0
  5
7C8
 10
171.358
 20
88.6972
 30
0.000000
  70
    32
  0
VERTEX
  8
0
  5
7C9
 10
171.329
 20
88.6960
 30
0.000000
  70
    32
  0
VERTEX
  8
0
  5
7CA
 10
171.301
 20
88.6946
 30
0.000000
  70
    32
  0
VERTEX
  8
0
  5
7CB
 10
171.272
 20
88.6931
 30
0.000000
  70
    32
  0
VERTEX
  8
0
  5
7CC
 10
171.244
 20
88.6916
 30
0.000000
  70
    32
  0
VERTEX
  8
0
  5
7CD
 10
171.215
 20
88.6899
 30
0.000000
  70
    32
  0
VERTEX
  8
0
  5
7CE
 10
171.187
 20
88.6881
 30
0.000000
  70
    32
  0
VERTEX
  8
0
  5
7CF
 10
171.159
 20
88.6863
 30
0.000000
  70
    32
  0
VERTEX
  8
0
  5
7D0
 10
171.130
 20
88.6843
 30
0.000000
  70
    32
  0
VERTEX
  8
0
  5
7D1
 10
171.102
 20
88.6822
 30
0.000000
  70
    32
  0
VERTEX
  8
0
  5
7D2
 10
171.073
 20
88.6800
 30
0.000000
  70
    32
  0
VERTEX
  8
0
  5
7D3
 10
171.045
 20
88.6778
 30
0.000000
  70
    32
  0
VERTEX
  8
0
  5
7D4
 10
171.017
 20
88.6754
 30
0.000000
  70
    32
  0
VERTEX
  8
0
  5
7D5
 10
170.988
 20
88.6729
 30
0.000000
  70
    32
  0
VERTEX
  8
0
  5
7D6
 10
170.960
 20
88.6703
 30
0.000000
  70
    32
  0
VERTEX
  8
0
  5
7D7
 10
170.932
 20
88.6677
 30
0.000000
  70
    32
  0
VERTEX
  8
0
  5
7D8
 10
170.904
 20
88.6649
 30
0.000000
  70
    32
  0
VERTEX
  8
0
  5
7D9
 10
170.875
 20
88.6620
 30
0.000000
  70
    32
  0
VERTEX
  8
0
  5
7DA
 10
170.847
 20
88.6590
 30
0.000000
  70
    32
  0
VERTEX
  8
0
  5
7DB
 10
170.819
 20
88.6559
 30
0.000000
  70
    32
  0
VERTEX
  8
0
  5
7DC
 10
170.791
 20
88.6528
 30
0.000000
  70
    32
  0
VERTEX
  8
0
  5
7DD
 10
170.763
 20
88.6495
 30
0.000000
  70
    32
  0
VERTEX
  8
0
  5
7DE
 10
170.735
 20
88.6461
 30
0.000000
  70
    32
  0
VERTEX
  8
0
  5
7DF
 10
170.707
 20
88.6427
 30
0.000000
  70
    32
  0
VERTEX
  8
0
  5
7E0
 10
170.679
 20
88.6391
 30
0.000000
  70
    32
  0
VERTEX
  8
0
  5
7E1
 10
170.651
 20
88.6354
 30
0.000000
  70
    32
  0
VERTEX
  8
0
  5
7E2
 10
170.623
 20
88.6316
 30
0.000000
  70
    32
  0
VERTEX
  8
0
  5
7E3
 10
170.595
 20
88.6278
 30
0.000000
  70
    32
  0
VERTEX
  8
0
  5
7E4
 10
170.567
 20
88.6238
 30
0.000000
  70
    32
  0
VERTEX
  8
0
  5
7E5
 10
170.540
 20
88.6197
 30
0.000000
  70
    32
  0
VERTEX
  8
0
  5
7E6
 10
170.512
 20
88.6156
 30
0.000000
  70
    32
  0
VERTEX
  8
0
  5
7E7
 10
170.484
 20
88.6113
 30
0.000000
  70
    32
  0
VERTEX
  8
0
  5
7E8
 10
170.457
 20
88.6070
 30
0.000000
  70
    32
  0
VERTEX
  8
0
  5
7E9
 10
170.429
 20
88.6025
 30
0.000000
  70
    32
  0
VERTEX
  8
0
  5
7EA
 10
170.402
 20
88.5979
 30
0.000000
  70
    32
  0
VERTEX
  8
0
  5
7EB
 10
170.374
 20
88.5933
 30
0.000000
  70
    32
  0
VERTEX
  8
0
  5
7EC
 10
170.347
 20
88.5885
 30
0.000000
  70
    32
  0
VERTEX
  8
0
  5
7ED
 10
170.319
 20
88.5837
 30
0.000000
  70
    32
  0
VERTEX
  8
0
  5
7EE
 10
170.292
 20
88.5787
 30
0.000000
  70
    32
  0
VERTEX
  8
0
  5
7EF
 10
170.265
 20
88.5737
 30
0.000000
  70
    32
  0
VERTEX
  8
0
  5
7F0
 10
170.238
 20
88.5686
 30
0.000000
  70
    32
  0
VERTEX
  8
0
  5
7F1
 10
170.210
 20
88.5633
 30
0.000000
  70
    32
  0
VERTEX
  8
0
  5
7F2
 10
170.183
 20
88.5580
 30
0.000000
  70
    32
  0
VERTEX
  8
0
  5
7F3
 10
170.156
 20
88.5526
 30
0.000000
  70
    32
  0
VERTEX
  8
0
  5
7F4
 10
170.129
 20
88.5471
 30
0.000000
  70
    32
  0
VERTEX
  8
0
  5
7F5
 10
170.102
 20
88.5414
 30
0.000000
  70
    32
  0
VERTEX
  8
0
  5
7F6
 10
170.075
 20
88.5357
 30
0.000000
  70
    32
  0
VERTEX
  8
0
  5
7F7
 10
170.049
 20
88.5299
 30
0.000000
  70
    32
  0
VERTEX
  8
0
  5
7F8
 10
170.022
 20
88.5240
 30
0.000000
  70
    32
  0
VERTEX
  8
0
  5
7F9
 10
169.995
 20
88.5180
 30
0.000000
  70
    32
  0
VERTEX
  8
0
  5
7FA
 10
169.969
 20
88.5119
 30
0.000000
  70
    32
  0
VERTEX
  8
0
  5
7FB
 10
169.942
 20
88.5057
 30
0.000000
  70
    32
  0
VERTEX
  8
0
  5
7FC
 10
169.916
 20
88.4995
 30
0.000000
  70
    32
  0
VERTEX
  8
0
  5
7FD
 10
169.889
 20
88.4931
 30
0.000000
  70
    32
  0
VERTEX
  8
0
  5
7FE
 10
169.863
 20
88.4866
 30
0.000000
  70
    32
  0
VERTEX
  8
0
  5
7FF
 10
169.836
 20
88.4801
 30
0.000000
  70
    32
  0
VERTEX
  8
0
  5
800
 10
169.810
 20
88.4734
 30
0.000000
  70
    32
  0
VERTEX
  8
0
  5
801
 10
169.784
 20
88.4667
 30
0.000000
  70
    32
  0
VERTEX
  8
0
  5
802
 10
169.758
 20
88.4598
 30
0.000000
  70
    32
  0
VERTEX
  8
0
  5
803
 10
169.732
 20
88.4529
 30
0.000000
  70
    32
  0
VERTEX
  8
0
  5
804
 10
169.706
 20
88.4459
 30
0.000000
  70
    32
  0
VERTEX
  8
0
  5
805
 10
169.680
 20
88.4388
 30
0.000000
  70
    32
  0
VERTEX
  8
0
  5
806
 10
169.655
 20
88.4316
 30
0.000000
  70
    32
  0
VERTEX
  8
0
  5
807
 10
169.629
 20
88.4243
 30
0.000000
  70
    32
  0
VERTEX
  8
0
  5
808
 10
169.603
 20
88.4169
 30
0.000000
  70
    32
  0
VERTEX
  8
0
  5
809
 10
169.578
 20
88.4094
 30
0.000000
  70
    32
  0
VERTEX
  8
0
  5
80A
 10
169.552
 20
88.4018
 30
0.000000
  70
    32
  0
VERTEX
  8
0
  5
80B
 10
169.527
 20
88.3942
 30
0.000000
  70
    32
  0
VERTEX
  8
0
  5
80C
 10
169.502
 20
88.3864
 30
0.000000
  70
    32
  0
VERTEX
  8
0
  5
80D
 10
169.476
 20
88.3786
 30
0.000000
  70
    32
  0
VERTEX
  8
0
  5
80E
 10
169.451
 20
88.3707
 30
0.000000
  70
    32
  0
VERTEX
  8
0
  5
80F
 10
169.426
 20
88.3627
 30
0.000000
  70
    32
  0
VERTEX
  8
0
  5
810
 10
169.401
 20
88.3545
 30
0.000000
  70
    32
  0
VERTEX
  8
0
  5
811
 10
169.376
 20
88.3464
 30
0.000000
  70
    32
  0
VERTEX
  8
0
  5
812
 10
169.352
 20
88.3381
 30
0.000000
  70
    32
  0
VERTEX
  8
0
  5
813
 10
169.327
 20
88.3297
 30
0.000000
  70
    32
  0
VERTEX
  8
0
  5
814
 10
169.302
 20
88.3213
 30
0.000000
  70
    32
  0
VERTEX
  8
0
  5
815
 10
169.278
 20
88.3127
 30
0.000000
  70
    32
  0
VERTEX
  8
0
  5
816
 10
169.253
 20
88.3041
 30
0.000000
  70
    32
  0
VERTEX
  8
0
  5
817
 10
169.229
 20
88.2954
 30
0.000000
  70
    32
  0
VERTEX
  8
0
  5
818
 10
169.205
 20
88.2866
 30
0.000000
  70
    32
  0
VERTEX
  8
0
  5
819
 10
169.181
 20
88.2777
 30
0.000000
  70
    32
  0
VERTEX
  8
0
  5
81A
 10
169.157
 20
88.2687
 30
0.000000
  70
    32
  0
VERTEX
  8
0
  5
81B
 10
169.133
 20
88.2597
 30
0.000000
  70
    32
  0
VERTEX
  8
0
  5
81C
 10
169.109
 20
88.2505
 30
0.000000
  70
    32
  0
VERTEX
  8
0
  5
81D
 10
169.085
 20
88.2413
 30
0.000000
  70
    32
  0
VERTEX
  8
0
  5
81E
 10
169.061
 20
88.2320
 30
0.000000
  70
    32
  0
VERTEX
  8
0
  5
81F
 10
169.038
 20
88.2226
 30
0.000000
  70
    32
  0
VERTEX
  8
0
  5
820
 10
169.014
 20
88.2131
 30
0.000000
  70
    32
  0
VERTEX
  8
0
  5
821
 10
168.991
 20
88.2035
 30
0.000000
  70
    32
  0
VERTEX
  8
0
  5
822
 10
168.968
 20
88.1939
 30
0.000000
  70
    32
  0
VERTEX
  8
0
  5
823
 10
168.945
 20
88.1842
 30
0.000000
  70
    32
  0
VERTEX
  8
0
  5
824
 10
168.921
 20
88.1744
 30
0.000000
  70
    32
  0
VERTEX
  8
0
  5
825
 10
168.899
 20
88.1645
 30
0.000000
  70
    32
  0
VERTEX
  8
0
  5
826
 10
168.876
 20
88.1545
 30
0.000000
  70
    32
  0
VERTEX
  8
0
  5
827
 10
168.853
 20
88.1445
 30
0.000000
  70
    32
  0
VERTEX
  8
0
  5
828
 10
168.830
 20
88.1343
 30
0.000000
  70
    32
  0
VERTEX
  8
0
  5
829
 10
168.808
 20
88.1241
 30
0.000000
  70
    32
  0
VERTEX
  8
0
  5
82A
 10
168.785
 20
88.1138
 30
0.000000
  70
    32
  0
VERTEX
  8
0
  5
82B
 10
168.763
 20
88.1035
 30
0.000000
  70
    32
  0
VERTEX
  8
0
  5
82C
 10
168.741
 20
88.0930
 30
0.000000
  70
    32
  0
VERTEX
  8
0
  5
82D
 10
168.719
 20
88.0825
 30
0.000000
  70
    32
  0
VERTEX
  8
0
  5
82E
 10
168.697
 20
88.0719
 30
0.000000
  70
    32
  0
VERTEX
  8
0
  5
82F
 10
168.675
 20
88.0612
 30
0.000000
  70
    32
  0
VERTEX
  8
0
  5
830
 10
168.653
 20
88.0504
 30
0.000000
  70
    32
  0
VERTEX
  8
0
  5
831
 10
168.632
 20
88.0396
 30
0.000000
  70
    32
  0
VERTEX
  8
0
  5
832
 10
168.610
 20
88.0287
 30
0.000000
  70
    32
  0
VERTEX
  8
0
  5
833
 10
168.589
 20
88.0177
 30
0.000000
  70
    32
  0
VERTEX
  8
0
  5
834
 10
168.567
 20
88.0066
 30
0.000000
  70
    32
  0
VERTEX
  8
0
  5
835
 10
168.546
 20
87.9955
 30
0.000000
  70
    32
  0
VERTEX
  8
0
  5
836
 10
168.525
 20
87.9843
 30
0.000000
  70
    32
  0
VERTEX
  8
0
  5
837
 10
168.504
 20
87.9730
 30
0.000000
  70
    32
  0
VERTEX
  8
0
  5
838
 10
168.484
 20
87.9616
 30
0.000000
  70
    32
  0
VERTEX
  8
0
  5
839
 10
168.463
 20
87.9502
 30
0.000000
  70
    32
  0
VERTEX
  8
0
  5
83A
 10
168.442
 20
87.9387
 30
0.000000
  70
    32
  0
VERTEX
  8
0
  5
83B
 10
168.422
 20
87.9271
 30
0.000000
  70
    32
  0
VERTEX
  8
0
  5
83C
 10
168.402
 20
87.9155
 30
0.000000
  70
    32
  0
SEQEND
  8
0
  5
83D
  0
LINE
  5
19F
  8
0
  6
CONTINUOUS
 62
     7
 10
149.0554629680571
 20
76.747201498170526
 30
0.0
 11
149.0554629680571
 21
75.63137761576958
 31
0.0
  0
POLYLINE
  5
1A0
  8
0
  6
CONTINUOUS
 62
     7
 10
142.437282230096
 20
80.567795914556754
 30
0.0
 66
     1
 70
     8
  0
VERTEX
  8
0
  5
83E
 10
142.437
 20
80.5678
 30
0.000000
  70
    32
  0
VERTEX
  8
0
  5
83F
 10
142.417
 20
80.5794
 30
0.000000
  70
    32
  0
VERTEX
  8
0
  5
840
 10
142.397
 20
80.5910
 30
0.000000
  70
    32
  0
VERTEX
  8
0
  5
841
 10
142.376
 20
80.6025
 30
0.000000
  70
    32
  0
VERTEX
  8
0
  5
842
 10
142.355
 20
80.6140
 30
0.000000
  70
    32
  0
VERTEX
  8
0
  5
843
 10
142.335
 20
80.6253
 30
0.000000
  70
    32
  0
VERTEX
  8
0
  5
844
 10
142.314
 20
80.6366
 30
0.000000
  70
    32
  0
VERTEX
  8
0
  5
845
 10
142.293
 20
80.6478
 30
0.000000
  70
    32
  0
VERTEX
  8
0
  5
846
 10
142.271
 20
80.6590
 30
0.000000
  70
    32
  0
VERTEX
  8
0
  5
847
 10
142.250
 20
80.6700
 30
0.000000
  70
    32
  0
VERTEX
  8
0
  5
848
 10
142.229
 20
80.6810
 30
0.000000
  70
    32
  0
VERTEX
  8
0
  5
849
 10
142.207
 20
80.6919
 30
0.000000
  70
    32
  0
VERTEX
  8
0
  5
84A
 10
142.186
 20
80.7028
 30
0.000000
  70
    32
  0
VERTEX
  8
0
  5
84B
 10
142.164
 20
80.7135
 30
0.000000
  70
    32
  0
VERTEX
  8
0
  5
84C
 10
142.142
 20
80.7242
 30
0.000000
  70
    32
  0
VERTEX
  8
0
  5
84D
 10
142.120
 20
80.7348
 30
0.000000
  70
    32
  0
VERTEX
  8
0
  5
84E
 10
142.098
 20
80.7453
 30
0.000000
  70
    32
  0
VERTEX
  8
0
  5
84F
 10
142.076
 20
80.7558
 30
0.000000
  70
    32
  0
VERTEX
  8
0
  5
850
 10
142.053
 20
80.7662
 30
0.000000
  70
    32
  0
VERTEX
  8
0
  5
851
 10
142.031
 20
80.7765
 30
0.000000
  70
    32
  0
VERTEX
  8
0
  5
852
 10
142.009
 20
80.7867
 30
0.000000
  70
    32
  0
VERTEX
  8
0
  5
853
 10
141.986
 20
80.7968
 30
0.000000
  70
    32
  0
VERTEX
  8
0
  5
854
 10
141.963
 20
80.8068
 30
0.000000
  70
    32
  0
VERTEX
  8
0
  5
855
 10
141.940
 20
80.8168
 30
0.000000
  70
    32
  0
VERTEX
  8
0
  5
856
 10
141.917
 20
80.8267
 30
0.000000
  70
    32
  0
VERTEX
  8
0
  5
857
 10
141.894
 20
80.8365
 30
0.000000
  70
    32
  0
VERTEX
  8
0
  5
858
 10
141.871
 20
80.8462
 30
0.000000
  70
    32
  0
VERTEX
  8
0
  5
859
 10
141.848
 20
80.8559
 30
0.000000
  70
    32
  0
VERTEX
  8
0
  5
85A
 10
141.825
 20
80.8654
 30
0.000000
  70
    32
  0
VERTEX
  8
0
  5
85B
 10
141.801
 20
80.8749
 30
0.000000
  70
    32
  0
VERTEX
  8
0
  5
85C
 10
141.778
 20
80.8843
 30
0.000000
  70
    32
  0
VERTEX
  8
0
  5
85D
 10
141.754
 20
80.8936
 30
0.000000
  70
    32
  0
VERTEX
  8
0
  5
85E
 10
141.730
 20
80.9028
 30
0.000000
  70
    32
  0
VERTEX
  8
0
  5
85F
 10
141.706
 20
80.9120
 30
0.000000
  70
    32
  0
VERTEX
  8
0
  5
860
 10
141.682
 20
80.9210
 30
0.000000
  70
    32
  0
VERTEX
  8
0
  5
861
 10
141.658
 20
80.9300
 30
0.000000
  70
    32
  0
VERTEX
  8
0
  5
862
 10
141.634
 20
80.9389
 30
0.000000
  70
    32
  0
VERTEX
  8
0
  5
863
 10
141.610
 20
80.9477
 30
0.000000
  70
    32
  0
VERTEX
  8
0
  5
864
 10
141.586
 20
80.9564
 30
0.000000
  70
    32
  0
VERTEX
  8
0
  5
865
 10
141.561
 20
80.9650
 30
0.000000
  70
    32
  0
VERTEX
  8
0
  5
866
 10
141.537
 20
80.9736
 30
0.000000
  70
    32
  0
VERTEX
  8
0
  5
867
 10
141.512
 20
80.9820
 30
0.000000
  70
    32
  0
VERTEX
  8
0
  5
868
 10
141.487
 20
80.9904
 30
0.000000
  70
    32
  0
VERTEX
  8
0
  5
869
 10
141.463
 20
80.9987
 30
0.000000
  70
    32
  0
VERTEX
  8
0
  5
86A
 10
141.438
 20
81.0069
 30
0.000000
  70
    32
  0
VERTEX
  8
0
  5
86B
 10
141.413
 20
81.0150
 30
0.000000
  70
    32
  0
VERTEX
  8
0
  5
86C
 10
141.388
 20
81.0230
 30
0.000000
  70
    32
  0
VERTEX
  8
0
  5
86D
 10
141.363
 20
81.0309
 30
0.000000
  70
    32
  0
VERTEX
  8
0
  5
86E
 10
141.337
 20
81.0388
 30
0.000000
  70
    32
  0
VERTEX
  8
0
  5
86F
 10
141.312
 20
81.0465
 30
0.000000
  70
    32
  0
VERTEX
  8
0
  5
870
 10
141.287
 20
81.0542
 30
0.000000
  70
    32
  0
VERTEX
  8
0
  5
871
 10
141.261
 20
81.0617
 30
0.000000
  70
    32
  0
VERTEX
  8
0
  5
872
 10
141.236
 20
81.0692
 30
0.000000
  70
    32
  0
VERTEX
  8
0
  5
873
 10
141.210
 20
81.0766
 30
0.000000
  70
    32
  0
VERTEX
  8
0
  5
874
 10
141.184
 20
81.0839
 30
0.000000
  70
    32
  0
VERTEX
  8
0
  5
875
 10
141.159
 20
81.0911
 30
0.000000
  70
    32
  0
VERTEX
  8
0
  5
876
 10
141.133
 20
81.0982
 30
0.000000
  70
    32
  0
VERTEX
  8
0
  5
877
 10
141.107
 20
81.1052
 30
0.000000
  70
    32
  0
VERTEX
  8
0
  5
878
 10
141.081
 20
81.1122
 30
0.000000
  70
    32
  0
VERTEX
  8
0
  5
879
 10
141.055
 20
81.1190
 30
0.000000
  70
    32
  0
VERTEX
  8
0
  5
87A
 10
141.029
 20
81.1257
 30
0.000000
  70
    32
  0
VERTEX
  8
0
  5
87B
 10
141.002
 20
81.1324
 30
0.000000
  70
    32
  0
VERTEX
  8
0
  5
87C
 10
140.976
 20
81.1390
 30
0.000000
  70
    32
  0
VERTEX
  8
0
  5
87D
 10
140.950
 20
81.1454
 30
0.000000
  70
    32
  0
VERTEX
  8
0
  5
87E
 10
140.923
 20
81.1518
 30
0.000000
  70
    32
  0
VERTEX
  8
0
  5
87F
 10
140.897
 20
81.1581
 30
0.000000
  70
    32
  0
VERTEX
  8
0
  5
880
 10
140.870
 20
81.1643
 30
0.000000
  70
    32
  0
VERTEX
  8
0
  5
881
 10
140.844
 20
81.1704
 30
0.000000
  70
    32
  0
VERTEX
  8
0
  5
882
 10
140.817
 20
81.1763
 30
0.000000
  70
    32
  0
VERTEX
  8
0
  5
883
 10
140.790
 20
81.1822
 30
0.000000
  70
    32
  0
VERTEX
  8
0
  5
884
 10
140.763
 20
81.1881
 30
0.000000
  70
    32
  0
VERTEX
  8
0
  5
885
 10
140.737
 20
81.1938
 30
0.000000
  70
    32
  0
VERTEX
  8
0
  5
886
 10
140.710
 20
81.1994
 30
0.000000
  70
    32
  0
VERTEX
  8
0
  5
887
 10
140.683
 20
81.2049
 30
0.000000
  70
    32
  0
VERTEX
  8
0
  5
888
 10
140.656
 20
81.2103
 30
0.000000
  70
    32
  0
VERTEX
  8
0
  5
889
 10
140.628
 20
81.2157
 30
0.000000
  70
    32
  0
VERTEX
  8
0
  5
88A
 10
140.601
 20
81.2209
 30
0.000000
  70
    32
  0
VERTEX
  8
0
  5
88B
 10
140.574
 20
81.2260
 30
0.000000
  70
    32
  0
VERTEX
  8
0
  5
88C
 10
140.547
 20
81.2311
 30
0.000000
  70
    32
  0
VERTEX
  8
0
  5
88D
 10
140.520
 20
81.2360
 30
0.000000
  70
    32
  0
VERTEX
  8
0
  5
88E
 10
140.492
 20
81.2409
 30
0.000000
  70
    32
  0
VERTEX
  8
0
  5
88F
 10
140.465
 20
81.2456
 30
0.000000
  70
    32
  0
VERTEX
  8
0
  5
890
 10
140.437
 20
81.2503
 30
0.000000
  70
    32
  0
VERTEX
  8
0
  5
891
 10
140.410
 20
81.2548
 30
0.000000
  70
    32
  0
VERTEX
  8
0
  5
892
 10
140.382
 20
81.2593
 30
0.000000
  70
    32
  0
VERTEX
  8
0
  5
893
 10
140.355
 20
81.2636
 30
0.000000
  70
    32
  0
VERTEX
  8
0
  5
894
 10
140.327
 20
81.2679
 30
0.000000
  70
    32
  0
VERTEX
  8
0
  5
895
 10
140.299
 20
81.2721
 30
0.000000
  70
    32
  0
VERTEX
  8
0
  5
896
 10
140.271
 20
81.2761
 30
0.000000
  70
    32
  0
VERTEX
  8
0
  5
897
 10
140.244
 20
81.2801
 30
0.000000
  70
    32
  0
VERTEX
  8
0
  5
898
 10
140.216
 20
81.2840
 30
0.000000
  70
    32
  0
VERTEX
  8
0
  5
899
 10
140.188
 20
81.2877
 30
0.000000
  70
    32
  0
VERTEX
  8
0
  5
89A
 10
140.160
 20
81.2914
 30
0.000000
  70
    32
  0
VERTEX
  8
0
  5
89B
 10
140.132
 20
81.2950
 30
0.000000
  70
    32
  0
VERTEX
  8
0
  5
89C
 10
140.104
 20
81.2985
 30
0.000000
  70
    32
  0
VERTEX
  8
0
  5
89D
 10
140.076
 20
81.3018
 30
0.000000
  70
    32
  0
VERTEX
  8
0
  5
89E
 10
140.048
 20
81.3051
 30
0.000000
  70
    32
  0
VERTEX
  8
0
  5
89F
 10
140.020
 20
81.3083
 30
0.000000
  70
    32
  0
VERTEX
  8
0
  5
8A0
 10
139.992
 20
81.3114
 30
0.000000
  70
    32
  0
VERTEX
  8
0
  5
8A1
 10
139.964
 20
81.3143
 30
0.000000
  70
    32
  0
VERTEX
  8
0
  5
8A2
 10
139.935
 20
81.3172
 30
0.000000
  70
    32
  0
VERTEX
  8
0
  5
8A3
 10
139.907
 20
81.3200
 30
0.000000
  70
    32
  0
VERTEX
  8
0
  5
8A4
 10
139.879
 20
81.3227
 30
0.000000
  70
    32
  0
VERTEX
  8
0
  5
8A5
 10
139.851
 20
81.3252
 30
0.000000
  70
    32
  0
VERTEX
  8
0
  5
8A6
 10
139.822
 20
81.3277
 30
0.000000
  70
    32
  0
VERTEX
  8
0
  5
8A7
 10
139.794
 20
81.3301
 30
0.000000
  70
    32
  0
VERTEX
  8
0
  5
8A8
 10
139.766
 20
81.3324
 30
0.000000
  70
    32
  0
VERTEX
  8
0
  5
8A9
 10
139.737
 20
81.3345
 30
0.000000
  70
    32
  0
VERTEX
  8
0
  5
8AA
 10
139.709
 20
81.3366
 30
0.000000
  70
    32
  0
VERTEX
  8
0
  5
8AB
 10
139.680
 20
81.3386
 30
0.000000
  70
    32
  0
VERTEX
  8
0
  5
8AC
 10
139.652
 20
81.3405
 30
0.000000
  70
    32
  0
VERTEX
  8
0
  5
8AD
 10
139.623
 20
81.3422
 30
0.000000
  70
    32
  0
VERTEX
  8
0
  5
8AE
 10
139.595
 20
81.3439
 30
0.000000
  70
    32
  0
VERTEX
  8
0
  5
8AF
 10
139.566
 20
81.3455
 30
0.000000
  70
    32
  0
VERTEX
  8
0
  5
8B0
 10
139.538
 20
81.3469
 30
0.000000
  70
    32
  0
VERTEX
  8
0
  5
8B1
 10
139.509
 20
81.3483
 30
0.000000
  70
    32
  0
VERTEX
  8
0
  5
8B2
 10
139.481
 20
81.3496
 30
0.000000
  70
    32
  0
VERTEX
  8
0
  5
8B3
 10
139.452
 20
81.3507
 30
0.000000
  70
    32
  0
VERTEX
  8
0
  5
8B4
 10
139.424
 20
81.3518
 30
0.000000
  70
    32
  0
VERTEX
  8
0
  5
8B5
 10
139.395
 20
81.3528
 30
0.000000
  70
    32
  0
VERTEX
  8
0
  5
8B6
 10
139.367
 20
81.3536
 30
0.000000
  70
    32
  0
VERTEX
  8
0
  5
8B7
 10
139.338
 20
81.3544
 30
0.000000
  70
    32
  0
VERTEX
  8
0
  5
8B8
 10
139.309
 20
81.3550
 30
0.000000
  70
    32
  0
VERTEX
  8
0
  5
8B9
 10
139.281
 20
81.3556
 30
0.000000
  70
    32
  0
VERTEX
  8
0
  5
8BA
 10
139.252
 20
81.3561
 30
0.000000
  70
    32
  0
VERTEX
  8
0
  5
8BB
 10
139.223
 20
81.3564
 30
0.000000
  70
    32
  0
VERTEX
  8
0
  5
8BC
 10
139.195
 20
81.3567
 30
0.000000
  70
    32
  0
VERTEX
  8
0
  5
8BD
 10
139.166
 20
81.3568
 30
0.000000
  70
    32
  0
VERTEX
  8
0
  5
8BE
 10
139.138
 20
81.3569
 30
0.000000
  70
    32
  0
SEQEND
  8
0
  5
8BF
  0
LINE
  5
1A1
  8
0
  6
CONTINUOUS
 62
     7
 10
161.78338502941509
 20
94.430028718017041
 30
0.0
 11
161.78338502941509
 21
89.186013170156869
 31
0.0
  0
LINE
  5
1A2
  8
0
  6
CONTINUOUS
 62
     7
 10
161.78338502941509
 20
84.094874504574875
 30
0.0
 11
161.78338502941509
 21
89.186013170156869
 31
0.0
  0
ARC
  5
1A3
  8
0
  6
CONTINUOUS
 62
     7
 10
190.63197946330581
 20
93.463964527365079
 30
0.0
 40
2.9730291296940972
 50
293.87778488081108
 51
354.80207416157452
  0
POLYLINE
  5
1A4
  8
0
  6
CONTINUOUS
 62
     7
 66
     1
 10
0.0
 20
0.0
 30
0.0
 70
   128
  0
VERTEX
  5
511
  8
0
  6
CONTINUOUS
 62
     7
 10
178.93616482378309
 20
95.389022043069176
 30
0.0
  0
VERTEX
  5
512
  8
0
  6
CONTINUOUS
 62
     7
 10
179.00250043637729
 20
95.450795857701564
 30
0.0
  0
VERTEX
  5
513
  8
0
  6
CONTINUOUS
 62
     7
 10
179.13147760997199
 20
95.593336099315451
 30
0.0
  0
VERTEX
  5
514
  8
0
  6
CONTINUOUS
 62
     7
 10
179.2348131992801
 20
95.742677696468675
 30
0.0
  0
VERTEX
  5
515
  8
0
  6
CONTINUOUS
 62
     7
 10
179.31144684131991
 20
95.897288202282994
 30
0.0
  0
VERTEX
  5
516
  8
0
  6
CONTINUOUS
 62
     7
 10
179.36059217122209
 20
96.055581103747329
 30
0.0
  0
VERTEX
  5
517
  8
0
  6
CONTINUOUS
 62
     7
 10
179.38174489139769
 20
96.215932101488107
 30
0.0
  0
VERTEX
  5
518
  8
0
  6
CONTINUOUS
 62
     7
 10
179.3746879463136
 20
96.376695777278982
 30
0.0
  0
VERTEX
  5
519
  8
0
  6
CONTINUOUS
 62
     7
 10
179.33949374977581
 20
96.536222478258253
 30
0.0
  0
VERTEX
  5
51A
  8
0
  6
CONTINUOUS
 62
     7
 10
179.27652344186609
 20
96.692875244599804
 30
0.0
  0
VERTEX
  5
51B
  8
0
  6
CONTINUOUS
 62
     7
 10
179.18642318315631
 20
96.845046606935924
 30
0.0
  0
VERTEX
  5
51C
  8
0
  6
CONTINUOUS
 62
     7
 10
179.07011752422571
 20
96.991175081168265
 30
0.0
  0
VERTEX
  5
51D
  8
0
  6
CONTINUOUS
 62
     7
 10
178.92879991852169
 20
97.129761191407781
 30
0.0
  0
VERTEX
  5
51E
  8
0
  6
CONTINUOUS
 62
     7
 10
178.7639204759121
 20
97.259382856626445
 30
0.0
  0
VERTEX
  5
51F
  8
0
  6
CONTINUOUS
 62
     7
 10
178.57717108259561
 20
97.378709983132964
 30
0.0
  0
VERTEX
  5
520
  8
0
  6
CONTINUOUS
 62
     7
 10
178.3704680400599
 20
97.486518113134025
 30
0.0
  0
VERTEX
  5
521
  8
0
  6
CONTINUOUS
 62
     7
 10
178.1459324012354
 20
97.581700989328084
 30
0.0
  0
VERTEX
  5
522
  8
0
  6
CONTINUOUS
 62
     7
 10
177.9058682056216
 20
97.663281906602336
 30
0.0
  0
VERTEX
  5
523
  8
0
  6
CONTINUOUS
 62
     7
 10
177.65273883672441
 20
97.730423734348975
 30
0.0
  0
VERTEX
  5
524
  8
0
  6
CONTINUOUS
 62
     7
 10
177.3891417444074
 20
97.782437506557912
 30
0.0
  0
VERTEX
  5
525
  8
0
  6
CONTINUOUS
 62
     7
 10
177.11778179154149
 20
97.818789491540386
 30
0.0
  0
VERTEX
  5
526
  8
0
  6
CONTINUOUS
 62
     7
 10
176.84144349845201
 20
97.839106668738395
 30
0.0
  0
VERTEX
  5
527
  8
0
  6
CONTINUOUS
 62
     7
 10
176.5629624699713
 20
97.843180556420322
 30
0.0
  0
VERTEX
  5
528
  8
0
  6
CONTINUOUS
 62
     7
 10
176.28519629829671
 20
97.830969350985754
 30
0.0
  0
VERTEX
  5
529
  8
0
  6
CONTINUOUS
 62
     7
 10
176.01099524022729
 20
97.802598355926804
 30
0.0
  0
VERTEX
  5
52A
  8
0
  6
CONTINUOUS
 62
     7
 10
175.74317296967209
 20
97.75835869604488
 30
0.0
  0
VERTEX
  5
52B
  8
0
  6
CONTINUOUS
 62
     7
 10
175.48447770554861
 20
97.698704330116215
 30
0.0
  0
VERTEX
  5
52C
  8
0
  6
CONTINUOUS
 62
     7
 10
175.23756401133721
 20
97.62424739266045
 30
0.0
  0
VERTEX
  5
52D
  8
0
  6
CONTINUOUS
 62
     7
 10
175.00496555566821
 20
97.535751912612255
 30
0.0
  0
VERTEX
  5
52E
  8
0
  6
CONTINUOUS
 62
     7
 10
174.7890691134528
 20
97.434125973350433
 30
0.0
  0
VERTEX
  5
52F
  8
0
  6
CONTINUOUS
 62
     7
 10
174.59209007434251
 20
97.320412394533676
 30
0.0
  0
VERTEX
  5
530
  8
0
  6
CONTINUOUS
 62
     7
 10
174.41604970983411
 20
97.195778031359708
 30
0.0
  0
VERTEX
  5
531
  8
0
  6
CONTINUOUS
 62
     7
 10
174.26275443228781
 20
97.061501801051918
 30
0.0
  0
VERTEX
  5
532
  8
0
  6
CONTINUOUS
 62
     7
 10
174.1337772586931
 20
96.918961559438046
 30
0.0
  0
VERTEX
  5
533
  8
0
  6
CONTINUOUS
 62
     7
 10
174.030441669385
 20
96.769619962284807
 30
0.0
  0
VERTEX
  5
534
  8
0
  6
CONTINUOUS
 62
     7
 10
173.95380802734519
 20
96.615009456470474
 30
0.0
  0
VERTEX
  5
535
  8
0
  6
CONTINUOUS
 62
     7
 10
173.904662697443
 20
96.456716555006153
 30
0.0
  0
VERTEX
  5
536
  8
0
  6
CONTINUOUS
 62
     7
 10
173.88350997726741
 20
96.296365557265361
 30
0.0
  0
VERTEX
  5
537
  8
0
  6
CONTINUOUS
 62
     7
 10
173.8905669223515
 20
96.135601881474514
 30
0.0
  0
VERTEX
  5
538
  8
0
  6
CONTINUOUS
 62
     7
 10
173.92576111888931
 20
95.976075180495229
 30
0.0
  0
VERTEX
  5
539
  8
0
  6
CONTINUOUS
 62
     7
 10
173.98873142679901
 20
95.819422414153664
 30
0.0
  0
VERTEX
  5
53A
  8
0
  6
CONTINUOUS
 62
     7
 10
174.0788316855089
 20
95.667251051817559
 30
0.0
  0
VERTEX
  5
53B
  8
0
  6
CONTINUOUS
 62
     7
 10
174.19513734443939
 20
95.521122577585217
 30
0.0
  0
VERTEX
  5
53C
  8
0
  6
CONTINUOUS
 62
     7
 10
174.32909004488229
 20
95.389022043069005
 30
0.0
  0
SEQEND
  5
53D
  8
0
  6
CONTINUOUS
 62
     7
  0
LINE
  5
1A5
  8
0
  6
CONTINUOUS
 62
     8
 10
149.0554629680571
 20
75.631377615769594
 30
0.0
 11
139.13755041239699
 21
81.356866663691164
 31
0.0
  0
LINE
  5
1A6
  8
0
  6
CONTINUOUS
 62
     8
 10
171.70129758507531
 20
88.704539670095485
 30
0.0
 11
149.0554629680571
 21
75.631377615769594
 31
0.0
  0
LINE
  5
1A7
  8
0
  6
CONTINUOUS
 62
     8
 10
161.78338502941509
 20
94.430028718017041
 30
0.0
 11
171.70129758507531
 21
88.704539670095485
 31
0.0
  0
LINE
  5
1A8
  8
0
  6
CONTINUOUS
 62
     8
 10
139.13755041239699
 20
81.356866663691164
 30
0.0
 11
161.78338502941509
 21
94.430028718017041
 31
0.0
  0
LINE
  5
1A9
  8
0
  6
CONTINUOUS
 62
     8
 10
143.75216210915801
 20
62.98751827260137
 30
0.0
 11
143.75216210915801
 21
64.008194287458579
 31
0.0
  0
LINE
  5
1AA
  8
0
  6
CONTINUOUS
 62
     8
 10
135.2668807349194
 20
62.987518272601392
 30
0.0
 11
135.2668807349194
 21
64.008194287458579
 31
0.0
  0
LINE
  5
1AB
  8
0
  6
CONTINUOUS
 62
     8
 10
191.83542322984329
 20
90.745394074573426
 30
0.0
 11
191.83542322984329
 21
91.766070089430627
 31
0.0
  0
LINE
  5
1AC
  8
0
  6
CONTINUOUS
 62
     8
 10
119.0034247676289
 20
72.376211558562574
 30
0.0
 11
119.0034247676289
 21
73.396887573419747
 31
0.0
  0
ARC
  5
1AD
  8
0
  6
CONTINUOUS
 62
     8
 10
149.04158250035721
 20
69.068180901067024
 30
0.0
 40
4.3003398779706341
 50
247.5607297687751
 51
299.72535698952743
  0
LINE
  5
1AE
  8
0
  6
CONTINUOUS
 62
     8
 10
151.17387611581151
 20
67.27198257125562
 30
0.0
 11
151.17387611581151
 21
65.333713468680301
 31
0.0
  0
LINE
  5
1AF
  8
0
  6
CONTINUOUS
 62
     8
 10
151.17387611581151
 20
65.333713468680301
 30
0.0
 11
165.6738159594974
 21
73.704350566419691
 31
0.0
  0
LINE
  5
1B0
  8
0
  6
CONTINUOUS
 62
     8
 10
165.6738159594974
 20
73.704350566419691
 30
0.0
 11
165.85947732556721
 21
75.749799694236074
 31
0.0
  0
LINE
  5
1B1
  8
0
  6
CONTINUOUS
 62
     8
 10
161.78338502941509
 20
89.186013170156869
 30
0.0
 11
144.64592976736819
 21
79.292770830961516
 31
0.0
  0
POLYLINE
  5
1B2
  8
0
  6
CONTINUOUS
 62
     8
 10
150.55614817636194
 20
63.998176910373545
 30
0.0
 66
     1
 70
     8
  0
VERTEX
  8
0
  5
8C0
 10
150.556
 20
63.9982
 30
0.000000
  70
    32
  0
VERTEX
  8
0
  5
8C1
 10
150.565
 20
64.0032
 30
0.000000
  70
    32
  0
VERTEX
  8
0
  5
8C2
 10
150.573
 20
64.0083
 30
0.000000
  70
    32
  0
VERTEX
  8
0
  5
8C3
 10
150.582
 20
64.0135
 30
0.000000
  70
    32
  0
VERTEX
  8
0
  5
8C4
 10
150.590
 20
64.0188
 30
0.000000
  70
    32
  0
VERTEX
  8
0
  5
8C5
 10
150.598
 20
64.0242
 30
0.000000
  70
    32
  0
VERTEX
  8
0
  5
8C6
 10
150.607
 20
64.0297
 30
0.000000
  70
    32
  0
VERTEX
  8
0
  5
8C7
 10
150.615
 20
64.0353
 30
0.000000
  70
    32
  0
VERTEX
  8
0
  5
8C8
 10
150.623
 20
64.0410
 30
0.000000
  70
    32
  0
VERTEX
  8
0
  5
8C9
 10
150.631
 20
64.0468
 30
0.000000
  70
    32
  0
VERTEX
  8
0
  5
8CA
 10
150.639
 20
64.0526
 30
0.000000
  70
    32
  0
VERTEX
  8
0
  5
8CB
 10
150.648
 20
64.0586
 30
0.000000
  70
    32
  0
VERTEX
  8
0
  5
8CC
 10
150.656
 20
64.0647
 30
0.000000
  70
    32
  0
VERTEX
  8
0
  5
8CD
 10
150.663
 20
64.0708
 30
0.000000
  70
    32
  0
VERTEX
  8
0
  5
8CE
 10
150.671
 20
64.0771
 30
0.000000
  70
    32
  0
VERTEX
  8
0
  5
8CF
 10
150.679
 20
64.0834
 30
0.000000
  70
    32
  0
VERTEX
  8
0
  5
8D0
 10
150.687
 20
64.0898
 30
0.000000
  70
    32
  0
VERTEX
  8
0
  5
8D1
 10
150.695
 20
64.0964
 30
0.000000
  70
    32
  0
VERTEX
  8
0
  5
8D2
 10
150.702
 20
64.1030
 30
0.000000
  70
    32
  0
VERTEX
  8
0
  5
8D3
 10
150.710
 20
64.1097
 30
0.000000
  70
    32
  0
VERTEX
  8
0
  5
8D4
 10
150.718
 20
64.1165
 30
0.000000
  70
    32
  0
VERTEX
  8
0
  5
8D5
 10
150.725
 20
64.1234
 30
0.000000
  70
    32
  0
VERTEX
  8
0
  5
8D6
 10
150.733
 20
64.1304
 30
0.000000
  70
    32
  0
VERTEX
  8
0
  5
8D7
 10
150.740
 20
64.1375
 30
0.000000
  70
    32
  0
VERTEX
  8
0
  5
8D8
 10
150.747
 20
64.1447
 30
0.000000
  70
    32
  0
VERTEX
  8
0
  5
8D9
 10
150.755
 20
64.1520
 30
0.000000
  70
    32
  0
VERTEX
  8
0
  5
8DA
 10
150.762
 20
64.1593
 30
0.000000
  70
    32
  0
VERTEX
  8
0
  5
8DB
 10
150.769
 20
64.1668
 30
0.000000
  70
    32
  0
VERTEX
  8
0
  5
8DC
 10
150.776
 20
64.1743
 30
0.000000
  70
    32
  0
VERTEX
  8
0
  5
8DD
 10
150.783
 20
64.1820
 30
0.000000
  70
    32
  0
VERTEX
  8
0
  5
8DE
 10
150.790
 20
64.1897
 30
0.000000
  70
    32
  0
VERTEX
  8
0
  5
8DF
 10
150.797
 20
64.1975
 30
0.000000
  70
    32
  0
VERTEX
  8
0
  5
8E0
 10
150.804
 20
64.2054
 30
0.000000
  70
    32
  0
VERTEX
  8
0
  5
8E1
 10
150.811
 20
64.2134
 30
0.000000
  70
    32
  0
VERTEX
  8
0
  5
8E2
 10
150.818
 20
64.2215
 30
0.000000
  70
    32
  0
VERTEX
  8
0
  5
8E3
 10
150.824
 20
64.2297
 30
0.000000
  70
    32
  0
VERTEX
  8
0
  5
8E4
 10
150.831
 20
64.2379
 30
0.000000
  70
    32
  0
VERTEX
  8
0
  5
8E5
 10
150.838
 20
64.2463
 30
0.000000
  70
    32
  0
VERTEX
  8
0
  5
8E6
 10
150.844
 20
64.2547
 30
0.000000
  70
    32
  0
VERTEX
  8
0
  5
8E7
 10
150.851
 20
64.2633
 30
0.000000
  70
    32
  0
VERTEX
  8
0
  5
8E8
 10
150.857
 20
64.2719
 30
0.000000
  70
    32
  0
VERTEX
  8
0
  5
8E9
 10
150.864
 20
64.2806
 30
0.000000
  70
    32
  0
VERTEX
  8
0
  5
8EA
 10
150.870
 20
64.2894
 30
0.000000
  70
    32
  0
VERTEX
  8
0
  5
8EB
 10
150.876
 20
64.2982
 30
0.000000
  70
    32
  0
VERTEX
  8
0
  5
8EC
 10
150.882
 20
64.3072
 30
0.000000
  70
    32
  0
VERTEX
  8
0
  5
8ED
 10
150.889
 20
64.3163
 30
0.000000
  70
    32
  0
VERTEX
  8
0
  5
8EE
 10
150.895
 20
64.3254
 30
0.000000
  70
    32
  0
VERTEX
  8
0
  5
8EF
 10
150.901
 20
64.3346
 30
0.000000
  70
    32
  0
VERTEX
  8
0
  5
8F0
 10
150.907
 20
64.3439
 30
0.000000
  70
    32
  0
VERTEX
  8
0
  5
8F1
 10
150.913
 20
64.3533
 30
0.000000
  70
    32
  0
VERTEX
  8
0
  5
8F2
 10
150.918
 20
64.3628
 30
0.000000
  70
    32
  0
VERTEX
  8
0
  5
8F3
 10
150.924
 20
64.3724
 30
0.000000
  70
    32
  0
VERTEX
  8
0
  5
8F4
 10
150.930
 20
64.3820
 30
0.000000
  70
    32
  0
VERTEX
  8
0
  5
8F5
 10
150.935
 20
64.3917
 30
0.000000
  70
    32
  0
VERTEX
  8
0
  5
8F6
 10
150.941
 20
64.4016
 30
0.000000
  70
    32
  0
VERTEX
  8
0
  5
8F7
 10
150.947
 20
64.4114
 30
0.000000
  70
    32
  0
VERTEX
  8
0
  5
8F8
 10
150.952
 20
64.4214
 30
0.000000
  70
    32
  0
VERTEX
  8
0
  5
8F9
 10
150.957
 20
64.4315
 30
0.000000
  70
    32
  0
VERTEX
  8
0
  5
8FA
 10
150.963
 20
64.4416
 30
0.000000
  70
    32
  0
VERTEX
  8
0
  5
8FB
 10
150.968
 20
64.4519
 30
0.000000
  70
    32
  0
VERTEX
  8
0
  5
8FC
 10
150.973
 20
64.4622
 30
0.000000
  70
    32
  0
VERTEX
  8
0
  5
8FD
 10
150.978
 20
64.4726
 30
0.000000
  70
    32
  0
VERTEX
  8
0
  5
8FE
 10
150.984
 20
64.4830
 30
0.000000
  70
    32
  0
VERTEX
  8
0
  5
8FF
 10
150.989
 20
64.4936
 30
0.000000
  70
    32
  0
VERTEX
  8
0
  5
900
 10
150.994
 20
64.5042
 30
0.000000
  70
    32
  0
VERTEX
  8
0
  5
901
 10
150.998
 20
64.5149
 30
0.000000
  70
    32
  0
VERTEX
  8
0
  5
902
 10
151.003
 20
64.5257
 30
0.000000
  70
    32
  0
VERTEX
  8
0
  5
903
 10
151.008
 20
64.5366
 30
0.000000
  70
    32
  0
VERTEX
  8
0
  5
904
 10
151.013
 20
64.5475
 30
0.000000
  70
    32
  0
VERTEX
  8
0
  5
905
 10
151.017
 20
64.5586
 30
0.000000
  70
    32
  0
VERTEX
  8
0
  5
906
 10
151.022
 20
64.5697
 30
0.000000
  70
    32
  0
VERTEX
  8
0
  5
907
 10
151.027
 20
64.5808
 30
0.000000
  70
    32
  0
VERTEX
  8
0
  5
908
 10
151.031
 20
64.5921
 30
0.000000
  70
    32
  0
VERTEX
  8
0
  5
909
 10
151.035
 20
64.6034
 30
0.000000
  70
    32
  0
VERTEX
  8
0
  5
90A
 10
151.040
 20
64.6149
 30
0.000000
  70
    32
  0
VERTEX
  8
0
  5
90B
 10
151.044
 20
64.6263
 30
0.000000
  70
    32
  0
VERTEX
  8
0
  5
90C
 10
151.048
 20
64.6379
 30
0.000000
  70
    32
  0
VERTEX
  8
0
  5
90D
 10
151.052
 20
64.6495
 30
0.000000
  70
    32
  0
VERTEX
  8
0
  5
90E
 10
151.056
 20
64.6613
 30
0.000000
  70
    32
  0
VERTEX
  8
0
  5
90F
 10
151.060
 20
64.6731
 30
0.000000
  70
    32
  0
VERTEX
  8
0
  5
910
 10
151.064
 20
64.6849
 30
0.000000
  70
    32
  0
VERTEX
  8
0
  5
911
 10
151.068
 20
64.6969
 30
0.000000
  70
    32
  0
VERTEX
  8
0
  5
912
 10
151.072
 20
64.7089
 30
0.000000
  70
    32
  0
VERTEX
  8
0
  5
913
 10
151.076
 20
64.7210
 30
0.000000
  70
    32
  0
VERTEX
  8
0
  5
914
 10
151.079
 20
64.7331
 30
0.000000
  70
    32
  0
VERTEX
  8
0
  5
915
 10
151.083
 20
64.7453
 30
0.000000
  70
    32
  0
VERTEX
  8
0
  5
916
 10
151.087
 20
64.7577
 30
0.000000
  70
    32
  0
VERTEX
  8
0
  5
917
 10
151.090
 20
64.7700
 30
0.000000
  70
    32
  0
VERTEX
  8
0
  5
918
 10
151.093
 20
64.7825
 30
0.000000
  70
    32
  0
VERTEX
  8
0
  5
919
 10
151.097
 20
64.7950
 30
0.000000
  70
    32
  0
VERTEX
  8
0
  5
91A
 10
151.100
 20
64.8076
 30
0.000000
  70
    32
  0
VERTEX
  8
0
  5
91B
 10
151.103
 20
64.8202
 30
0.000000
  70
    32
  0
VERTEX
  8
0
  5
91C
 10
151.106
 20
64.8330
 30
0.000000
  70
    32
  0
VERTEX
  8
0
  5
91D
 10
151.109
 20
64.8458
 30
0.000000
  70
    32
  0
VERTEX
  8
0
  5
91E
 10
151.112
 20
64.8586
 30
0.000000
  70
    32
  0
VERTEX
  8
0
  5
91F
 10
151.115
 20
64.8715
 30
0.000000
  70
    32
  0
VERTEX
  8
0
  5
920
 10
151.118
 20
64.8845
 30
0.000000
  70
    32
  0
VERTEX
  8
0
  5
921
 10
151.121
 20
64.8976
 30
0.000000
  70
    32
  0
VERTEX
  8
0
  5
922
 10
151.124
 20
64.9108
 30
0.000000
  70
    32
  0
VERTEX
  8
0
  5
923
 10
151.126
 20
64.9240
 30
0.000000
  70
    32
  0
VERTEX
  8
0
  5
924
 10
151.129
 20
64.9372
 30
0.000000
  70
    32
  0
VERTEX
  8
0
  5
925
 10
151.132
 20
64.9506
 30
0.000000
  70
    32
  0
VERTEX
  8
0
  5
926
 10
151.134
 20
64.9639
 30
0.000000
  70
    32
  0
VERTEX
  8
0
  5
927
 10
151.136
 20
64.9774
 30
0.000000
  70
    32
  0
VERTEX
  8
0
  5
928
 10
151.139
 20
64.9909
 30
0.000000
  70
    32
  0
VERTEX
  8
0
  5
929
 10
151.141
 20
65.0045
 30
0.000000
  70
    32
  0
VERTEX
  8
0
  5
92A
 10
151.143
 20
65.0182
 30
0.000000
  70
    32
  0
VERTEX
  8
0
  5
92B
 10
151.145
 20
65.0319
 30
0.000000
  70
    32
  0
VERTEX
  8
0
  5
92C
 10
151.147
 20
65.0457
 30
0.000000
  70
    32
  0
VERTEX
  8
0
  5
92D
 10
151.149
 20
65.0595
 30
0.000000
  70
    32
  0
VERTEX
  8
0
  5
92E
 10
151.151
 20
65.0734
 30
0.000000
  70
    32
  0
VERTEX
  8
0
  5
92F
 10
151.153
 20
65.0874
 30
0.000000
  70
    32
  0
VERTEX
  8
0
  5
930
 10
151.155
 20
65.1014
 30
0.000000
  70
    32
  0
VERTEX
  8
0
  5
931
 10
151.157
 20
65.1155
 30
0.000000
  70
    32
  0
VERTEX
  8
0
  5
932
 10
151.158
 20
65.1297
 30
0.000000
  70
    32
  0
VERTEX
  8
0
  5
933
 10
151.160
 20
65.1439
 30
0.000000
  70
    32
  0
VERTEX
  8
0
  5
934
 10
151.161
 20
65.1581
 30
0.000000
  70
    32
  0
VERTEX
  8
0
  5
935
 10
151.163
 20
65.1724
 30
0.000000
  70
    32
  0
VERTEX
  8
0
  5
936
 10
151.164
 20
65.1868
 30
0.000000
  70
    32
  0
VERTEX
  8
0
  5
937
 10
151.165
 20
65.2013
 30
0.000000
  70
    32
  0
VERTEX
  8
0
  5
938
 10
151.167
 20
65.2158
 30
0.000000
  70
    32
  0
VERTEX
  8
0
  5
939
 10
151.168
 20
65.2303
 30
0.000000
  70
    32
  0
VERTEX
  8
0
  5
93A
 10
151.169
 20
65.2449
 30
0.000000
  70
    32
  0
VERTEX
  8
0
  5
93B
 10
151.170
 20
65.2596
 30
0.000000
  70
    32
  0
VERTEX
  8
0
  5
93C
 10
151.171
 20
65.2743
 30
0.000000
  70
    32
  0
VERTEX
  8
0
  5
93D
 10
151.172
 20
65.2891
 30
0.000000
  70
    32
  0
VERTEX
  8
0
  5
93E
 10
151.172
 20
65.3039
 30
0.000000
  70
    32
  0
VERTEX
  8
0
  5
93F
 10
151.173
 20
65.3188
 30
0.000000
  70
    32
  0
VERTEX
  8
0
  5
940
 10
151.174
 20
65.3337
 30
0.000000
  70
    32
  0
SEQEND
  8
0
  5
941
  0
POLYLINE
  5
1B3
  8
0
  6
CONTINUOUS
 62
     8
 10
146.99789688172623
 20
64.861241073493758
 30
0.0
 66
     1
 70
     8
  0
VERTEX
  8
0
  5
942
 10
146.998
 20
64.8612
 30
0.000000
  70
    32
  0
VERTEX
  8
0
  5
943
 10
147.000
 20
64.8518
 30
0.000000
  70
    32
  0
VERTEX
  8
0
  5
944
 10
147.002
 20
64.8423
 30
0.000000
  70
    32
  0
VERTEX
  8
0
  5
945
 10
147.005
 20
64.8329
 30
0.000000
  70
    32
  0
VERTEX
  8
0
  5
946
 10
147.007
 20
64.8235
 30
0.000000
  70
    32
  0
VERTEX
  8
0
  5
947
 10
147.009
 20
64.8142
 30
0.000000
  70
    32
  0
VERTEX
  8
0
  5
948
 10
147.012
 20
64.8049
 30
0.000000
  70
    32
  0
VERTEX
  8
0
  5
949
 10
147.014
 20
64.7956
 30
0.000000
  70
    32
  0
VERTEX
  8
0
  5
94A
 10
147.016
 20
64.7864
 30
0.000000
  70
    32
  0
VERTEX
  8
0
  5
94B
 10
147.019
 20
64.7772
 30
0.000000
  70
    32
  0
VERTEX
  8
0
  5
94C
 10
147.021
 20
64.7680
 30
0.000000
  70
    32
  0
VERTEX
  8
0
  5
94D
 10
147.024
 20
64.7589
 30
0.000000
  70
    32
  0
VERTEX
  8
0
  5
94E
 10
147.027
 20
64.7498
 30
0.000000
  70
    32
  0
VERTEX
  8
0
  5
94F
 10
147.029
 20
64.7408
 30
0.000000
  70
    32
  0
VERTEX
  8
0
  5
950
 10
147.032
 20
64.7318
 30
0.000000
  70
    32
  0
VERTEX
  8
0
  5
951
 10
147.035
 20
64.7229
 30
0.000000
  70
    32
  0
VERTEX
  8
0
  5
952
 10
147.037
 20
64.7139
 30
0.000000
  70
    32
  0
VERTEX
  8
0
  5
953
 10
147.040
 20
64.7051
 30
0.000000
  70
    32
  0
VERTEX
  8
0
  5
954
 10
147.043
 20
64.6962
 30
0.000000
  70
    32
  0
VERTEX
  8
0
  5
955
 10
147.046
 20
64.6874
 30
0.000000
  70
    32
  0
VERTEX
  8
0
  5
956
 10
147.049
 20
64.6787
 30
0.000000
  70
    32
  0
VERTEX
  8
0
  5
957
 10
147.052
 20
64.6700
 30
0.000000
  70
    32
  0
VERTEX
  8
0
  5
958
 10
147.055
 20
64.6613
 30
0.000000
  70
    32
  0
VERTEX
  8
0
  5
959
 10
147.058
 20
64.6526
 30
0.000000
  70
    32
  0
VERTEX
  8
0
  5
95A
 10
147.061
 20
64.6440
 30
0.000000
  70
    32
  0
VERTEX
  8
0
  5
95B
 10
147.064
 20
64.6355
 30
0.000000
  70
    32
  0
VERTEX
  8
0
  5
95C
 10
147.067
 20
64.6270
 30
0.000000
  70
    32
  0
VERTEX
  8
0
  5
95D
 10
147.070
 20
64.6185
 30
0.000000
  70
    32
  0
VERTEX
  8
0
  5
95E
 10
147.073
 20
64.6101
 30
0.000000
  70
    32
  0
VERTEX
  8
0
  5
95F
 10
147.076
 20
64.6017
 30
0.000000
  70
    32
  0
VERTEX
  8
0
  5
960
 10
147.079
 20
64.5933
 30
0.000000
  70
    32
  0
VERTEX
  8
0
  5
961
 10
147.083
 20
64.5850
 30
0.000000
  70
    32
  0
VERTEX
  8
0
  5
962
 10
147.086
 20
64.5768
 30
0.000000
  70
    32
  0
VERTEX
  8
0
  5
963
 10
147.089
 20
64.5685
 30
0.000000
  70
    32
  0
VERTEX
  8
0
  5
964
 10
147.093
 20
64.5604
 30
0.000000
  70
    32
  0
VERTEX
  8
0
  5
965
 10
147.096
 20
64.5522
 30
0.000000
  70
    32
  0
VERTEX
  8
0
  5
966
 10
147.100
 20
64.5441
 30
0.000000
  70
    32
  0
VERTEX
  8
0
  5
967
 10
147.103
 20
64.5361
 30
0.000000
  70
    32
  0
VERTEX
  8
0
  5
968
 10
147.107
 20
64.5281
 30
0.000000
  70
    32
  0
VERTEX
  8
0
  5
969
 10
147.110
 20
64.5201
 30
0.000000
  70
    32
  0
VERTEX
  8
0
  5
96A
 10
147.114
 20
64.5122
 30
0.000000
  70
    32
  0
VERTEX
  8
0
  5
96B
 10
147.117
 20
64.5043
 30
0.000000
  70
    32
  0
VERTEX
  8
0
  5
96C
 10
147.121
 20
64.4965
 30
0.000000
  70
    32
  0
VERTEX
  8
0
  5
96D
 10
147.125
 20
64.4887
 30
0.000000
  70
    32
  0
VERTEX
  8
0
  5
96E
 10
147.128
 20
64.4809
 30
0.000000
  70
    32
  0
VERTEX
  8
0
  5
96F
 10
147.132
 20
64.4732
 30
0.000000
  70
    32
  0
VERTEX
  8
0
  5
970
 10
147.136
 20
64.4656
 30
0.000000
  70
    32
  0
VERTEX
  8
0
  5
971
 10
147.140
 20
64.4579
 30
0.000000
  70
    32
  0
VERTEX
  8
0
  5
972
 10
147.144
 20
64.4504
 30
0.000000
  70
    32
  0
VERTEX
  8
0
  5
973
 10
147.147
 20
64.4428
 30
0.000000
  70
    32
  0
VERTEX
  8
0
  5
974
 10
147.151
 20
64.4353
 30
0.000000
  70
    32
  0
VERTEX
  8
0
  5
975
 10
147.155
 20
64.4279
 30
0.000000
  70
    32
  0
VERTEX
  8
0
  5
976
 10
147.159
 20
64.4205
 30
0.000000
  70
    32
  0
VERTEX
  8
0
  5
977
 10
147.163
 20
64.4131
 30
0.000000
  70
    32
  0
VERTEX
  8
0
  5
978
 10
147.167
 20
64.4058
 30
0.000000
  70
    32
  0
VERTEX
  8
0
  5
979
 10
147.172
 20
64.3986
 30
0.000000
  70
    32
  0
VERTEX
  8
0
  5
97A
 10
147.176
 20
64.3914
 30
0.000000
  70
    32
  0
VERTEX
  8
0
  5
97B
 10
147.180
 20
64.3842
 30
0.000000
  70
    32
  0
VERTEX
  8
0
  5
97C
 10
147.184
 20
64.3771
 30
0.000000
  70
    32
  0
VERTEX
  8
0
  5
97D
 10
147.188
 20
64.3700
 30
0.000000
  70
    32
  0
VERTEX
  8
0
  5
97E
 10
147.192
 20
64.3630
 30
0.000000
  70
    32
  0
VERTEX
  8
0
  5
97F
 10
147.197
 20
64.3560
 30
0.000000
  70
    32
  0
VERTEX
  8
0
  5
980
 10
147.201
 20
64.3490
 30
0.000000
  70
    32
  0
VERTEX
  8
0
  5
981
 10
147.205
 20
64.3421
 30
0.000000
  70
    32
  0
VERTEX
  8
0
  5
982
 10
147.210
 20
64.3353
 30
0.000000
  70
    32
  0
VERTEX
  8
0
  5
983
 10
147.214
 20
64.3285
 30
0.000000
  70
    32
  0
VERTEX
  8
0
  5
984
 10
147.219
 20
64.3217
 30
0.000000
  70
    32
  0
VERTEX
  8
0
  5
985
 10
147.223
 20
64.3150
 30
0.000000
  70
    32
  0
VERTEX
  8
0
  5
986
 10
147.228
 20
64.3083
 30
0.000000
  70
    32
  0
VERTEX
  8
0
  5
987
 10
147.232
 20
64.3017
 30
0.000000
  70
    32
  0
VERTEX
  8
0
  5
988
 10
147.237
 20
64.2951
 30
0.000000
  70
    32
  0
VERTEX
  8
0
  5
989
 10
147.242
 20
64.2886
 30
0.000000
  70
    32
  0
VERTEX
  8
0
  5
98A
 10
147.246
 20
64.2821
 30
0.000000
  70
    32
  0
VERTEX
  8
0
  5
98B
 10
147.251
 20
64.2757
 30
0.000000
  70
    32
  0
VERTEX
  8
0
  5
98C
 10
147.256
 20
64.2693
 30
0.000000
  70
    32
  0
VERTEX
  8
0
  5
98D
 10
147.260
 20
64.2630
 30
0.000000
  70
    32
  0
VERTEX
  8
0
  5
98E
 10
147.265
 20
64.2567
 30
0.000000
  70
    32
  0
VERTEX
  8
0
  5
98F
 10
147.270
 20
64.2505
 30
0.000000
  70
    32
  0
VERTEX
  8
0
  5
990
 10
147.275
 20
64.2443
 30
0.000000
  70
    32
  0
VERTEX
  8
0
  5
991
 10
147.280
 20
64.2381
 30
0.000000
  70
    32
  0
VERTEX
  8
0
  5
992
 10
147.285
 20
64.2320
 30
0.000000
  70
    32
  0
VERTEX
  8
0
  5
993
 10
147.289
 20
64.2260
 30
0.000000
  70
    32
  0
VERTEX
  8
0
  5
994
 10
147.294
 20
64.2200
 30
0.000000
  70
    32
  0
VERTEX
  8
0
  5
995
 10
147.299
 20
64.2140
 30
0.000000
  70
    32
  0
VERTEX
  8
0
  5
996
 10
147.304
 20
64.2081
 30
0.000000
  70
    32
  0
VERTEX
  8
0
  5
997
 10
147.310
 20
64.2023
 30
0.000000
  70
    32
  0
VERTEX
  8
0
  5
998
 10
147.315
 20
64.1965
 30
0.000000
  70
    32
  0
VERTEX
  8
0
  5
999
 10
147.320
 20
64.1907
 30
0.000000
  70
    32
  0
VERTEX
  8
0
  5
99A
 10
147.325
 20
64.1850
 30
0.000000
  70
    32
  0
VERTEX
  8
0
  5
99B
 10
147.330
 20
64.1794
 30
0.000000
  70
    32
  0
VERTEX
  8
0
  5
99C
 10
147.335
 20
64.1737
 30
0.000000
  70
    32
  0
VERTEX
  8
0
  5
99D
 10
147.341
 20
64.1682
 30
0.000000
  70
    32
  0
VERTEX
  8
0
  5
99E
 10
147.346
 20
64.1627
 30
0.000000
  70
    32
  0
VERTEX
  8
0
  5
99F
 10
147.351
 20
64.1572
 30
0.000000
  70
    32
  0
VERTEX
  8
0
  5
9A0
 10
147.356
 20
64.1518
 30
0.000000
  70
    32
  0
VERTEX
  8
0
  5
9A1
 10
147.362
 20
64.1464
 30
0.000000
  70
    32
  0
VERTEX
  8
0
  5
9A2
 10
147.367
 20
64.1411
 30
0.000000
  70
    32
  0
VERTEX
  8
0
  5
9A3
 10
147.373
 20
64.1359
 30
0.000000
  70
    32
  0
VERTEX
  8
0
  5
9A4
 10
147.378
 20
64.1306
 30
0.000000
  70
    32
  0
VERTEX
  8
0
  5
9A5
 10
147.384
 20
64.1255
 30
0.000000
  70
    32
  0
VERTEX
  8
0
  5
9A6
 10
147.389
 20
64.1204
 30
0.000000
  70
    32
  0
VERTEX
  8
0
  5
9A7
 10
147.395
 20
64.1153
 30
0.000000
  70
    32
  0
VERTEX
  8
0
  5
9A8
 10
147.400
 20
64.1103
 30
0.000000
  70
    32
  0
VERTEX
  8
0
  5
9A9
 10
147.406
 20
64.1053
 30
0.000000
  70
    32
  0
VERTEX
  8
0
  5
9AA
 10
147.412
 20
64.1004
 30
0.000000
  70
    32
  0
VERTEX
  8
0
  5
9AB
 10
147.417
 20
64.0956
 30
0.000000
  70
    32
  0
VERTEX
  8
0
  5
9AC
 10
147.423
 20
64.0907
 30
0.000000
  70
    32
  0
VERTEX
  8
0
  5
9AD
 10
147.429
 20
64.0860
 30
0.000000
  70
    32
  0
VERTEX
  8
0
  5
9AE
 10
147.434
 20
64.0813
 30
0.000000
  70
    32
  0
VERTEX
  8
0
  5
9AF
 10
147.440
 20
64.0766
 30
0.000000
  70
    32
  0
VERTEX
  8
0
  5
9B0
 10
147.446
 20
64.0720
 30
0.000000
  70
    32
  0
VERTEX
  8
0
  5
9B1
 10
147.452
 20
64.0675
 30
0.000000
  70
    32
  0
VERTEX
  8
0
  5
9B2
 10
147.458
 20
64.0629
 30
0.000000
  70
    32
  0
VERTEX
  8
0
  5
9B3
 10
147.464
 20
64.0585
 30
0.000000
  70
    32
  0
VERTEX
  8
0
  5
9B4
 10
147.469
 20
64.0541
 30
0.000000
  70
    32
  0
VERTEX
  8
0
  5
9B5
 10
147.475
 20
64.0497
 30
0.000000
  70
    32
  0
VERTEX
  8
0
  5
9B6
 10
147.481
 20
64.0454
 30
0.000000
  70
    32
  0
VERTEX
  8
0
  5
9B7
 10
147.487
 20
64.0412
 30
0.000000
  70
    32
  0
VERTEX
  8
0
  5
9B8
 10
147.493
 20
64.0370
 30
0.000000
  70
    32
  0
VERTEX
  8
0
  5
9B9
 10
147.500
 20
64.0328
 30
0.000000
  70
    32
  0
VERTEX
  8
0
  5
9BA
 10
147.506
 20
64.0287
 30
0.000000
  70
    32
  0
VERTEX
  8
0
  5
9BB
 10
147.512
 20
64.0247
 30
0.000000
  70
    32
  0
VERTEX
  8
0
  5
9BC
 10
147.518
 20
64.0207
 30
0.000000
  70
    32
  0
VERTEX
  8
0
  5
9BD
 10
147.524
 20
64.0168
 30
0.000000
  70
    32
  0
VERTEX
  8
0
  5
9BE
 10
147.530
 20
64.0129
 30
0.000000
  70
    32
  0
VERTEX
  8
0
  5
9BF
 10
147.536
 20
64.0091
 30
0.000000
  70
    32
  0
VERTEX
  8
0
  5
9C0
 10
147.543
 20
64.0053
 30
0.000000
  70
    32
  0
VERTEX
  8
0
  5
9C1
 10
147.549
 20
64.0015
 30
0.000000
  70
    32
  0
VERTEX
  8
0
  5
9C2
 10
147.555
 20
63.9979
 30
0.000000
  70
    32
  0
SEQEND
  8
0
  5
9C3
  0
POLYLINE
  5
1B4
  8
0
  6
CONTINUOUS
 62
     8
 10
164.93157390093708
 20
72.296932985362446
 30
0.0
 66
     1
 70
     8
  0
VERTEX
  8
0
  5
9C4
 10
164.932
 20
72.2969
 30
0.000000
  70
    32
  0
VERTEX
  8
0
  5
9C5
 10
164.942
 20
72.3029
 30
0.000000
  70
    32
  0
VERTEX
  8
0
  5
9C6
 10
164.952
 20
72.3090
 30
0.000000
  70
    32
  0
VERTEX
  8
0
  5
9C7
 10
164.962
 20
72.3152
 30
0.000000
  70
    32
  0
VERTEX
  8
0
  5
9C8
 10
164.972
 20
72.3215
 30
0.000000
  70
    32
  0
VERTEX
  8
0
  5
9C9
 10
164.982
 20
72.3278
 30
0.000000
  70
    32
  0
VERTEX
  8
0
  5
9CA
 10
164.992
 20
72.3343
 30
0.000000
  70
    32
  0
VERTEX
  8
0
  5
9CB
 10
165.002
 20
72.3408
 30
0.000000
  70
    32
  0
VERTEX
  8
0
  5
9CC
 10
165.012
 20
72.3474
 30
0.000000
  70
    32
  0
VERTEX
  8
0
  5
9CD
 10
165.022
 20
72.3542
 30
0.000000
  70
    32
  0
VERTEX
  8
0
  5
9CE
 10
165.032
 20
72.3610
 30
0.000000
  70
    32
  0
VERTEX
  8
0
  5
9CF
 10
165.041
 20
72.3679
 30
0.000000
  70
    32
  0
VERTEX
  8
0
  5
9D0
 10
165.051
 20
72.3748
 30
0.000000
  70
    32
  0
VERTEX
  8
0
  5
9D1
 10
165.060
 20
72.3819
 30
0.000000
  70
    32
  0
VERTEX
  8
0
  5
9D2
 10
165.070
 20
72.3891
 30
0.000000
  70
    32
  0
VERTEX
  8
0
  5
9D3
 10
165.079
 20
72.3963
 30
0.000000
  70
    32
  0
VERTEX
  8
0
  5
9D4
 10
165.089
 20
72.4037
 30
0.000000
  70
    32
  0
VERTEX
  8
0
  5
9D5
 10
165.098
 20
72.4111
 30
0.000000
  70
    32
  0
VERTEX
  8
0
  5
9D6
 10
165.107
 20
72.4186
 30
0.000000
  70
    32
  0
VERTEX
  8
0
  5
9D7
 10
165.116
 20
72.4262
 30
0.000000
  70
    32
  0
VERTEX
  8
0
  5
9D8
 10
165.126
 20
72.4339
 30
0.000000
  70
    32
  0
VERTEX
  8
0
  5
9D9
 10
165.135
 20
72.4416
 30
0.000000
  70
    32
  0
VERTEX
  8
0
  5
9DA
 10
165.144
 20
72.4495
 30
0.000000
  70
    32
  0
VERTEX
  8
0
  5
9DB
 10
165.152
 20
72.4574
 30
0.000000
  70
    32
  0
VERTEX
  8
0
  5
9DC
 10
165.161
 20
72.4655
 30
0.000000
  70
    32
  0
VERTEX
  8
0
  5
9DD
 10
165.170
 20
72.4736
 30
0.000000
  70
    32
  0
VERTEX
  8
0
  5
9DE
 10
165.179
 20
72.4818
 30
0.000000
  70
    32
  0
VERTEX
  8
0
  5
9DF
 10
165.187
 20
72.4901
 30
0.000000
  70
    32
  0
VERTEX
  8
0
  5
9E0
 10
165.196
 20
72.4984
 30
0.000000
  70
    32
  0
VERTEX
  8
0
  5
9E1
 10
165.204
 20
72.5069
 30
0.000000
  70
    32
  0
VERTEX
  8
0
  5
9E2
 10
165.213
 20
72.5154
 30
0.000000
  70
    32
  0
VERTEX
  8
0
  5
9E3
 10
165.221
 20
72.5240
 30
0.000000
  70
    32
  0
VERTEX
  8
0
  5
9E4
 10
165.230
 20
72.5328
 30
0.000000
  70
    32
  0
VERTEX
  8
0
  5
9E5
 10
165.238
 20
72.5415
 30
0.000000
  70
    32
  0
VERTEX
  8
0
  5
9E6
 10
165.246
 20
72.5504
 30
0.000000
  70
    32
  0
VERTEX
  8
0
  5
9E7
 10
165.254
 20
72.5594
 30
0.000000
  70
    32
  0
VERTEX
  8
0
  5
9E8
 10
165.262
 20
72.5684
 30
0.000000
  70
    32
  0
VERTEX
  8
0
  5
9E9
 10
165.270
 20
72.5775
 30
0.000000
  70
    32
  0
VERTEX
  8
0
  5
9EA
 10
165.278
 20
72.5867
 30
0.000000
  70
    32
  0
VERTEX
  8
0
  5
9EB
 10
165.286
 20
72.5960
 30
0.000000
  70
    32
  0
VERTEX
  8
0
  5
9EC
 10
165.293
 20
72.6053
 30
0.000000
  70
    32
  0
VERTEX
  8
0
  5
9ED
 10
165.301
 20
72.6148
 30
0.000000
  70
    32
  0
VERTEX
  8
0
  5
9EE
 10
165.309
 20
72.6243
 30
0.000000
  70
    32
  0
VERTEX
  8
0
  5
9EF
 10
165.316
 20
72.6339
 30
0.000000
  70
    32
  0
VERTEX
  8
0
  5
9F0
 10
165.324
 20
72.6436
 30
0.000000
  70
    32
  0
VERTEX
  8
0
  5
9F1
 10
165.331
 20
72.6534
 30
0.000000
  70
    32
  0
VERTEX
  8
0
  5
9F2
 10
165.338
 20
72.6632
 30
0.000000
  70
    32
  0
VERTEX
  8
0
  5
9F3
 10
165.346
 20
72.6731
 30
0.000000
  70
    32
  0
VERTEX
  8
0
  5
9F4
 10
165.353
 20
72.6831
 30
0.000000
  70
    32
  0
VERTEX
  8
0
  5
9F5
 10
165.360
 20
72.6932
 30
0.000000
  70
    32
  0
VERTEX
  8
0
  5
9F6
 10
165.367
 20
72.7033
 30
0.000000
  70
    32
  0
VERTEX
  8
0
  5
9F7
 10
165.374
 20
72.7136
 30
0.000000
  70
    32
  0
VERTEX
  8
0
  5
9F8
 10
165.381
 20
72.7239
 30
0.000000
  70
    32
  0
VERTEX
  8
0
  5
9F9
 10
165.387
 20
72.7343
 30
0.000000
  70
    32
  0
VERTEX
  8
0
  5
9FA
 10
165.394
 20
72.7447
 30
0.000000
  70
    32
  0
VERTEX
  8
0
  5
9FB
 10
165.401
 20
72.7553
 30
0.000000
  70
    32
  0
VERTEX
  8
0
  5
9FC
 10
165.407
 20
72.7659
 30
0.000000
  70
    32
  0
VERTEX
  8
0
  5
9FD
 10
165.414
 20
72.7766
 30
0.000000
  70
    32
  0
VERTEX
  8
0
  5
9FE
 10
165.420
 20
72.7874
 30
0.000000
  70
    32
  0
VERTEX
  8
0
  5
9FF
 10
165.427
 20
72.7982
 30
0.000000
  70
    32
  0
VERTEX
  8
0
  5
A00
 10
165.433
 20
72.8091
 30
0.000000
  70
    32
  0
VERTEX
  8
0
  5
A01
 10
165.439
 20
72.8201
 30
0.000000
  70
    32
  0
VERTEX
  8
0
  5
A02
 10
165.445
 20
72.8312
 30
0.000000
  70
    32
  0
VERTEX
  8
0
  5
A03
 10
165.451
 20
72.8423
 30
0.000000
  70
    32
  0
VERTEX
  8
0
  5
A04
 10
165.457
 20
72.8535
 30
0.000000
  70
    32
  0
VERTEX
  8
0
  5
A05
 10
165.463
 20
72.8648
 30
0.000000
  70
    32
  0
VERTEX
  8
0
  5
A06
 10
165.469
 20
72.8761
 30
0.000000
  70
    32
  0
VERTEX
  8
0
  5
A07
 10
165.475
 20
72.8876
 30
0.000000
  70
    32
  0
VERTEX
  8
0
  5
A08
 10
165.480
 20
72.8991
 30
0.000000
  70
    32
  0
VERTEX
  8
0
  5
A09
 10
165.486
 20
72.9106
 30
0.000000
  70
    32
  0
VERTEX
  8
0
  5
A0A
 10
165.491
 20
72.9223
 30
0.000000
  70
    32
  0
VERTEX
  8
0
  5
A0B
 10
165.497
 20
72.9340
 30
0.000000
  70
    32
  0
VERTEX
  8
0
  5
A0C
 10
165.502
 20
72.9458
 30
0.000000
  70
    32
  0
VERTEX
  8
0
  5
A0D
 10
165.507
 20
72.9576
 30
0.000000
  70
    32
  0
VERTEX
  8
0
  5
A0E
 10
165.513
 20
72.9695
 30
0.000000
  70
    32
  0
VERTEX
  8
0
  5
A0F
 10
165.518
 20
72.9815
 30
0.000000
  70
    32
  0
VERTEX
  8
0
  5
A10
 10
165.523
 20
72.9936
 30
0.000000
  70
    32
  0
VERTEX
  8
0
  5
A11
 10
165.528
 20
73.0057
 30
0.000000
  70
    32
  0
VERTEX
  8
0
  5
A12
 10
165.533
 20
73.0179
 30
0.000000
  70
    32
  0
VERTEX
  8
0
  5
A13
 10
165.537
 20
73.0301
 30
0.000000
  70
    32
  0
VERTEX
  8
0
  5
A14
 10
165.542
 20
73.0425
 30
0.000000
  70
    32
  0
VERTEX
  8
0
  5
A15
 10
165.547
 20
73.0549
 30
0.000000
  70
    32
  0
VERTEX
  8
0
  5
A16
 10
165.551
 20
73.0673
 30
0.000000
  70
    32
  0
VERTEX
  8
0
  5
A17
 10
165.556
 20
73.0798
 30
0.000000
  70
    32
  0
VERTEX
  8
0
  5
A18
 10
165.560
 20
73.0924
 30
0.000000
  70
    32
  0
VERTEX
  8
0
  5
A19
 10
165.565
 20
73.1051
 30
0.000000
  70
    32
  0
VERTEX
  8
0
  5
A1A
 10
165.569
 20
73.1178
 30
0.000000
  70
    32
  0
VERTEX
  8
0
  5
A1B
 10
165.573
 20
73.1306
 30
0.000000
  70
    32
  0
VERTEX
  8
0
  5
A1C
 10
165.577
 20
73.1434
 30
0.000000
  70
    32
  0
VERTEX
  8
0
  5
A1D
 10
165.581
 20
73.1563
 30
0.000000
  70
    32
  0
VERTEX
  8
0
  5
A1E
 10
165.585
 20
73.1693
 30
0.000000
  70
    32
  0
VERTEX
  8
0
  5
A1F
 10
165.589
 20
73.1824
 30
0.000000
  70
    32
  0
VERTEX
  8
0
  5
A20
 10
165.593
 20
73.1955
 30
0.000000
  70
    32
  0
VERTEX
  8
0
  5
A21
 10
165.596
 20
73.2086
 30
0.000000
  70
    32
  0
VERTEX
  8
0
  5
A22
 10
165.600
 20
73.2218
 30
0.000000
  70
    32
  0
VERTEX
  8
0
  5
A23
 10
165.604
 20
73.2351
 30
0.000000
  70
    32
  0
VERTEX
  8
0
  5
A24
 10
165.607
 20
73.2484
 30
0.000000
  70
    32
  0
VERTEX
  8
0
  5
A25
 10
165.610
 20
73.2618
 30
0.000000
  70
    32
  0
VERTEX
  8
0
  5
A26
 10
165.614
 20
73.2753
 30
0.000000
  70
    32
  0
VERTEX
  8
0
  5
A27
 10
165.617
 20
73.2888
 30
0.000000
  70
    32
  0
VERTEX
  8
0
  5
A28
 10
165.620
 20
73.3024
 30
0.000000
  70
    32
  0
VERTEX
  8
0
  5
A29
 10
165.623
 20
73.3160
 30
0.000000
  70
    32
  0
VERTEX
  8
0
  5
A2A
 10
165.626
 20
73.3297
 30
0.000000
  70
    32
  0
VERTEX
  8
0
  5
A2B
 10
165.629
 20
73.3435
 30
0.000000
  70
    32
  0
VERTEX
  8
0
  5
A2C
 10
165.632
 20
73.3573
 30
0.000000
  70
    32
  0
VERTEX
  8
0
  5
A2D
 10
165.634
 20
73.3711
 30
0.000000
  70
    32
  0
VERTEX
  8
0
  5
A2E
 10
165.637
 20
73.3850
 30
0.000000
  70
    32
  0
VERTEX
  8
0
  5
A2F
 10
165.639
 20
73.3990
 30
0.000000
  70
    32
  0
VERTEX
  8
0
  5
A30
 10
165.642
 20
73.4130
 30
0.000000
  70
    32
  0
VERTEX
  8
0
  5
A31
 10
165.644
 20
73.4271
 30
0.000000
  70
    32
  0
VERTEX
  8
0
  5
A32
 10
165.647
 20
73.4413
 30
0.000000
  70
    32
  0
VERTEX
  8
0
  5
A33
 10
165.649
 20
73.4554
 30
0.000000
  70
    32
  0
VERTEX
  8
0
  5
A34
 10
165.651
 20
73.4697
 30
0.000000
  70
    32
  0
VERTEX
  8
0
  5
A35
 10
165.653
 20
73.4840
 30
0.000000
  70
    32
  0
VERTEX
  8
0
  5
A36
 10
165.655
 20
73.4983
 30
0.000000
  70
    32
  0
VERTEX
  8
0
  5
A37
 10
165.657
 20
73.5127
 30
0.000000
  70
    32
  0
VERTEX
  8
0
  5
A38
 10
165.659
 20
73.5272
 30
0.000000
  70
    32
  0
VERTEX
  8
0
  5
A39
 10
165.660
 20
73.5417
 30
0.000000
  70
    32
  0
VERTEX
  8
0
  5
A3A
 10
165.662
 20
73.5562
 30
0.000000
  70
    32
  0
VERTEX
  8
0
  5
A3B
 10
165.664
 20
73.5708
 30
0.000000
  70
    32
  0
VERTEX
  8
0
  5
A3C
 10
165.665
 20
73.5855
 30
0.000000
  70
    32
  0
VERTEX
  8
0
  5
A3D
 10
165.666
 20
73.6002
 30
0.000000
  70
    32
  0
VERTEX
  8
0
  5
A3E
 10
165.668
 20
73.6149
 30
0.000000
  70
    32
  0
VERTEX
  8
0
  5
A3F
 10
165.669
 20
73.6297
 30
0.000000
  70
    32
  0
VERTEX
  8
0
  5
A40
 10
165.670
 20
73.6445
 30
0.000000
  70
    32
  0
VERTEX
  8
0
  5
A41
 10
165.671
 20
73.6594
 30
0.000000
  70
    32
  0
VERTEX
  8
0
  5
A42
 10
165.672
 20
73.6744
 30
0.000000
  70
    32
  0
VERTEX
  8
0
  5
A43
 10
165.673
 20
73.6893
 30
0.000000
  70
    32
  0
VERTEX
  8
0
  5
A44
 10
165.674
 20
73.7044
 30
0.000000
  70
    32
  0
SEQEND
  8
0
  5
A45
  0
LINE
  5
1B5
  8
0
  6
CONTINUOUS
 62
     8
 10
166.192918230104
 20
86.640443837365865
 30
0.0
 11
161.78338502941509
 21
89.186013170156869
 31
0.0
  0
ARC
  5
1B6
  8
0
  6
CONTINUOUS
 62
     8
 10
165.13734941624369
 20
75.026026887869037
 30
0.0
 40
1.4264026958437881
 50
292.09216368754602
 51
350.24316384566032
  0
LINE
  5
1B7
  8
0
  6
CONTINUOUS
 62
     7
 10
168.55203482737841
 20
138.79658004225851
 30
0.0
 11
168.55203482737841
 21
150.08137120403711
 31
0.0
  0
ARC
  5
1B8
  8
0
  6
CONTINUOUS
 62
     7
 10
166.55203482737841
 20
150.08137120403711
 30
0.0
 40
2.0
 50
0.0
 51
87.000000000000085
  0
LINE
  5
1B9
  8
0
  6
CONTINUOUS
 62
     7
 10
152.92932617177669
 20
152.7980518044929
 30
0.0
 11
166.65670673986429
 21
152.0786302735462
 31
0.0
  0
ARC
  5
1BA
  8
0
  6
CONTINUOUS
 62
     7
 10
153.10203482737839
 20
156.09352926918299
 30
0.0
 40
3.30000000000003
 50
180.0
 51
267.00000000000023
  0
LINE
  5
1BB
  8
0
  6
CONTINUOUS
 62
     7
 10
149.80203482737841
 20
176.00036312886471
 30
0.0
 11
149.80203482737841
 21
156.09352926918299
 31
0.0
  0
ARC
  5
1BC
  8
0
  6
CONTINUOUS
 62
     7
 10
153.10203482737839
 20
176.00036312886471
 30
0.0
 40
3.30000000000003
 50
93.000000000000625
 51
180.0
  0
LINE
  5
1BD
  8
0
  6
CONTINUOUS
 62
     7
 10
166.65670673986429
 20
180.0152621245015
 30
0.0
 11
152.92932617177669
 21
179.2958405935548
 31
0.0
  0
ARC
  5
1BE
  8
0
  6
CONTINUOUS
 62
     7
 10
166.55203482737841
 20
182.0125211940107
 30
0.0
 40
2.0
 50
273.00000000000068
 51
0.0000000000000509
  0
LINE
  5
1BF
  8
0
  6
CONTINUOUS
 62
     7
 10
168.55203482737841
 20
182.0125211940107
 30
0.0
 11
168.55203482737841
 21
193.29731235578919
 31
0.0
  0
POLYLINE
  5
1C0
  8
0
  6
CONTINUOUS
 62
     7
 66
     1
 10
0.0
 20
0.0
 30
0.0
 70
   128
  0
VERTEX
  5
53E
  8
0
  6
CONTINUOUS
 62
     7
 10
168.55203482737841
 20
193.29731235578919
 30
0.0
  0
VERTEX
  5
53F
  8
0
  6
CONTINUOUS
 62
     7
 10
169.75557470384589
 20
192.09366100482401
 30
0.0
  0
VERTEX
  5
540
  8
0
  6
CONTINUOUS
 62
     7
 10
169.80203482737841
 20
192.0471979229618
 30
0.0
  0
SEQEND
  5
541
  8
0
  6
CONTINUOUS
 62
     7
  0
LINE
  5
1C1
  8
0
  6
CONTINUOUS
 62
     7
 10
169.80203482737841
 20
192.0471979229618
 30
0.0
 11
169.80203482737841
 21
182.0599694223464
 31
0.0
  0
ARC
  5
1C2
  8
0
  6
CONTINUOUS
 62
     7
 10
166.5020348273784
 20
182.0599694223464
 30
0.0
 40
3.3000000000000291
 50
273.00000000000091
 51
0.0
  0
LINE
  5
1C3
  8
0
  6
CONTINUOUS
 62
     7
 10
166.67474348298009
 20
178.7644919576563
 30
0.0
 11
152.94736291489261
 21
178.0450704267096
 31
0.0
  0
ARC
  5
1C4
  8
0
  6
CONTINUOUS
 62
     7
 10
153.05203482737841
 20
176.04781135720049
 30
0.0
 40
2.0
 50
92.999999999999901
 51
180.0
  0
LINE
  5
1C5
  8
0
  6
CONTINUOUS
 62
     7
 10
151.05203482737841
 20
176.04781135720049
 30
0.0
 11
151.05203482737841
 21
156.04608104084721
 31
0.0
  0
ARC
  5
1C6
  8
0
  6
CONTINUOUS
 62
     7
 10
153.05203482737841
 20
156.04608104084721
 30
0.0
 40
2.0
 50
179.99999999999989
 51
267.00000000000091
  0
LINE
  5
1C7
  8
0
  6
CONTINUOUS
 62
     7
 10
152.94736291489261
 20
154.0488219713381
 30
0.0
 11
166.67474348298009
 21
153.3294004403914
 31
0.0
  0
ARC
  5
1C8
  8
0
  6
CONTINUOUS
 62
     7
 10
166.5020348273784
 20
150.0339229757013
 30
0.0
 40
3.3000000000000109
 50
0.0
 51
86.999999999999844
  0
LINE
  5
1C9
  8
0
  6
CONTINUOUS
 62
     7
 10
169.80203482737841
 20
150.0339229757013
 30
0.0
 11
169.80203482737841
 21
140.0466944750859
 31
0.0
  0
LINE
  5
1CA
  8
0
  6
CONTINUOUS
 62
     7
 10
169.80203482737841
 20
140.0466944750859
 30
0.0
 11
168.55203482737841
 21
138.79658004225851
 31
0.0
  0
LINE
  5
1CB
  8
0
  6
CONTINUOUS
 62
     7
 10
168.55203482737841
 20
126.04694619902391
 30
0.0
 11
169.80203482737841
 21
126.04694619902391
 31
0.0
  0
LINE
  5
1CC
  8
0
  6
CONTINUOUS
 62
     7
 10
168.55203482737841
 20
126.04694619902391
 30
0.0
 11
168.55203482737841
 21
133.29731235578919
 31
0.0
  0
POLYLINE
  5
1CD
  8
0
  6
CONTINUOUS
 62
     7
 66
     1
 10
0.0
 20
0.0
 30
0.0
 70
   128
  0
VERTEX
  5
542
  8
0
  6
CONTINUOUS
 62
     7
 10
168.55203482737841
 20
133.29731235578919
 30
0.0
  0
VERTEX
  5
543
  8
0
  6
CONTINUOUS
 62
     7
 10
169.75557470384589
 20
132.09366100482401
 30
0.0
  0
VERTEX
  5
544
  8
0
  6
CONTINUOUS
 62
     7
 10
169.80203482737841
 20
132.0471979229618
 30
0.0
  0
SEQEND
  5
545
  8
0
  6
CONTINUOUS
 62
     7
  0
LINE
  5
1CE
  8
0
  6
CONTINUOUS
 62
     7
 10
169.80203482737841
 20
132.0471979229618
 30
0.0
 11
169.80203482737841
 21
126.04694619902391
 31
0.0
  0
LINE
  5
1CF
  8
0
  6
CONTINUOUS
 62
     7
 10
168.55203482737841
 20
133.29731235578919
 30
0.0
 11
168.55203482737841
 21
138.79658004225851
 31
0.0
  0
LINE
  5
1D0
  8
0
  6
CONTINUOUS
 62
     7
 10
169.80203482737841
 20
132.0471979229618
 30
0.0
 11
169.80203482737841
 21
140.0466944750859
 31
0.0
  0
LINE
  5
1D1
  8
0
  6
CONTINUOUS
 62
     7
 10
169.80203482737841
 20
200.0466944750859
 30
0.0
 11
168.55203482737841
 21
198.79658004225851
 31
0.0
  0
LINE
  5
1D2
  8
0
  6
CONTINUOUS
 62
     7
 10
169.80203482737841
 20
192.0471979229618
 30
0.0
 11
169.80203482737841
 21
200.0466944750859
 31
0.0
  0
LINE
  5
1D3
  8
0
  6
CONTINUOUS
 62
     7
 10
168.55203482737841
 20
193.29731235578919
 30
0.0
 11
168.55203482737841
 21
198.79659259341861
 31
0.0
  0
LINE
  5
1D4
  8
0
  6
CONTINUOUS
 62
     7
 10
169.80203482737841
 20
206.04694619902389
 30
0.0
 11
168.55203482737841
 21
206.04694619902389
 31
0.0
  0
LINE
  5
1D5
  8
0
  6
CONTINUOUS
 62
     7
 10
169.80203482737841
 20
206.04694619902389
 30
0.0
 11
169.80203482737841
 21
200.0466944750859
 31
0.0
  0
LINE
  5
1D6
  8
0
  6
CONTINUOUS
 62
     7
 10
168.55203482737841
 20
198.79658004225851
 30
0.0
 11
168.55203482737841
 21
206.04694619902389
 31
0.0
  0
LINE
  5
1D7
  8
0
  6
CONTINUOUS
 62
     7
 10
169.80203482737841
 20
182.0599694223464
 30
0.0
 11
169.80203482737841
 21
150.0339229757013
 31
0.0
  0
INSERT
  5
1D8
  8
0
  6
CONTINUOUS
 62
     7
  2
*X93
 10
0.0
 20
0.0
 30
0.0
1001
ACAD
1000
HATCH
1002
{
1070
    19
1000
ANSI31
1040
1.0
1040
0.0
1000
R14_HATCH_DATA
1000
1D8
1011
1.0
1021
0.0
1031
0.0
1021
0.0
1031
0.0
1011
0.0
1021
0.0
1031
0.0
1021
1.0
1031
0.0
1011
0.0
1021
0.0
1031
0.0
1021
0.0
1031
1.0
1040
0.0
1010
0.0
1020
0.0
1030
1.0
1000
ANSI31
1070
     0
1070
     0
1071
        1
1071
        0
1071
       20
1070
     4
1070
     3
1070
     1
1070
     0
1071
        8
1071
        4
1040
0.0163532195350287
1040
0.0163532195350287
1040
0.0163532195350287
1040
0.0163532195350287
1040
0.0181168142209307
1040
0.0181168142209307
1040
0.0181168142209307
1040
0.0181168142209307
1040
168.55203482737841
1040
138.79658004225851
1040
1.0
1040
168.9686928234305
1040
139.2132935228415
1040
1.0
1040
169.38536219997809
1040
139.62999562441669
1040
1.0
1040
169.80203482737841
1040
140.0466944750859
1040
1.0
1070
     1
1040
169.80203482737841
1040
140.0466944750859
1040
169.80203482737841
1040
150.0339229757013
1070
     2
1040
166.5020348273784
1040
150.0339229757013
1040
3.2999999999999989
1040
0.0
1040
1.5184364492350639
1070
     1
1070
     1
1040
166.67474348298009
1040
153.3294004403914
1040
152.94736291489261
1040
154.0488219713381
1070
     2
1040
153.05203482737841
1040
156.04608104084721
1040
2.0
1040
1.6231562043547101
1040
3.1415926535897931
1070
     0
1070
     1
1040
151.05203482737841
1040
156.04608104084721
1040
151.05203482737841
1040
176.04781135720049
1070
     2
1040
153.05203482737841
1040
176.04781135720049
1040
2.0
1040
3.1415926535897931
1040
4.6600291028248888
1070
     0
1070
     1
1040
152.94736291489261
1040
178.0450704267096
1040
166.67474348298009
1040
178.7644919576563
1070
     2
1040
166.5020348273784
1040
182.0599694223464
1040
3.2999999999999989
1040
4.764748857944535
1040
6.2831853071796004
1070
     1
1070
     1
1040
169.80203482737841
1040
182.0599694223464
1040
169.80203482737841
1040
192.0471979229618
1070
     4
1070
     3
1070
     1
1070
     0
1071
       11
1071
        7
1040
0.0068709699621003
1040
0.0068709699621003
1040
0.0068709699621003
1040
0.0068709699621003
1040
0.0069366765907877
1040
0.0069366765907877
1040
0.0069366765907877
1040
0.008638817834973
1040
0.008638817834973
1040
0.008638817834973
1040
0.008638817834973
1040
169.80203482737841
1040
192.0471979229618
1040
1.0
1040
169.7865481138069
1040
192.06268561118881
1040
1.0
1040
169.77106140589541
1040
192.07817330507561
1040
1.0
1040
169.75557470384589
1040
192.09366100482401
1040
1.0
1040
169.35438908849741
1040
192.49487246573051
1040
1.0
1040
168.95320665367231
1040
192.8960871071902
1040
1.0
1040
168.55203482737841
1040
193.29731235578919
1040
1.0
1070
     1
1040
168.55203482737841
1040
193.29731235578919
1040
168.55203482737841
1040
182.0125211940107
1070
     2
1040
166.55203482737841
1040
182.0125211940107
1040
2.0
1040
0.0
1040
1.5184364492350679
1070
     0
1070
     1
1040
166.65670673986429
1040
180.0152621245015
1040
152.92932617177669
1040
179.2958405935548
1070
     2
1040
153.10203482737839
1040
176.00036312886471
1040
3.2999999999999989
1040
1.623156204354737
1040
3.1415926535897931
1070
     1
1070
     1
1040
149.80203482737841
1040
176.00036312886471
1040
149.80203482737841
1040
156.09352926918299
1070
     2
1040
153.10203482737839
1040
156.09352926918299
1040
3.2999999999999989
1040
3.1415926535897931
1040
4.660029102824863
1070
     1
1070
     1
1040
152.92932617177669
1040
152.7980518044929
1040
166.65670673986429
1040
152.0786302735462
1070
     2
1040
166.55203482737841
1040
150.08137120403711
1040
2.0
1040
4.7647488579445323
1040
6.2831853071796004
1070
     0
1070
     1
1040
168.55203482737841
1040
150.08137120403711
1040
168.55203482737841
1040
138.79658004225851
1071
        0
1070
     0
1070
     1
1040
0.0
1040
1.0
1070
     0
1070
     1
1040
0.7853981633974483
1040
0.0
1040
0.0
1040
-2.2450640302672871
1040
2.245064030267288
1070
     0
1071
        1
1040
0.0
1040
0.0
1040
0.0
1002
}
  0
INSERT
  5
1D9
  8
0
  6
CONTINUOUS
 62
     7
  2
*X94
 10
0.0
 20
0.0
 30
0.0
1001
ACAD
1000
HATCH
1002
{
1070
    19
1000
ANSI31
1040
1.0
1040
0.0
1000
R14_HATCH_DATA
1000
1D9
1011
1.0
1021
0.0
1031
0.0
1021
0.0
1031
0.0
1011
0.0
1021
0.0
1031
0.0
1021
1.0
1031
0.0
1011
0.0
1021
0.0
1031
0.0
1021
0.0
1031
1.0
1040
0.0
1010
0.0
1020
0.0
1030
1.0
1000
ANSI31
1070
     0
1070
     0
1071
        1
1071
        0
1071
        4
1070
     1
1040
169.80203482737841
1040
200.0466944750859
1040
169.80203482737841
1040
206.04694619902389
1070
     1
1040
169.80203482737841
1040
206.04694619902389
1040
168.55203482737841
1040
206.04694619902389
1070
     1
1040
168.55203482737841
1040
206.04694619902389
1040
168.55203482737841
1040
198.79658004225851
1070
     4
1070
     3
1070
     1
1070
     0
1071
        8
1071
        4
1040
0.0163532195350286
1040
0.0163532195350286
1040
0.0163532195350286
1040
0.0163532195350286
1040
0.0181168142209307
1040
0.0181168142209307
1040
0.0181168142209307
1040
0.0181168142209307
1040
168.55203482737841
1040
198.79658004225851
1040
1.0
1040
168.9686928234305
1040
199.2132935228415
1040
1.0
1040
169.38536219997809
1040
199.62999562441669
1040
1.0
1040
169.80203482737841
1040
200.0466944750859
1040
1.0
1071
        0
1070
     0
1070
     1
1040
0.0
1040
1.0
1070
     0
1070
     1
1040
0.7853981633974483
1040
0.0
1040
0.0
1040
-2.2450640302672871
1040
2.245064030267288
1070
     0
1071
        1
1040
0.0
1040
0.0
1040
0.0
1002
}
  0
INSERT
  5
1DA
  8
0
  6
CONTINUOUS
 62
     7
  2
*X95
 10
0.0
 20
0.0
 30
0.0
1001
ACAD
1000
HATCH
1002
{
1070
    19
1000
ANSI31
1040
1.0
1040
0.0
1000
R14_HATCH_DATA
1000
1DA
1011
1.0
1021
0.0
1031
0.0
1021
0.0
1031
0.0
1011
0.0
1021
0.0
1031
0.0
1021
1.0
1031
0.0
1011
0.0
1021
0.0
1031
0.0
1021
0.0
1031
1.0
1040
0.0
1010
0.0
1020
0.0
1030
1.0
1000
ANSI31
1070
     0
1070
     0
1071
        1
1071
        0
1071
        4
1070
     1
1040
169.80203482737841
1040
126.04694619902391
1040
169.80203482737841
1040
132.0471979229618
1070
     4
1070
     3
1070
     1
1070
     0
1071
       11
1071
        7
1040
0.0068709699621003
1040
0.0068709699621003
1040
0.0068709699621003
1040
0.0068709699621003
1040
0.0069366765907877
1040
0.0069366765907877
1040
0.0069366765907877
1040
0.008638817834973
1040
0.008638817834973
1040
0.008638817834973
1040
0.008638817834973
1040
169.80203482737841
1040
132.0471979229618
1040
1.0
1040
169.7865481138069
1040
132.0626856111889
1040
1.0
1040
169.77106140589541
1040
132.07817330507561
1040
1.0
1040
169.75557470384589
1040
132.09366100482401
1040
1.0
1040
169.3543890884975
1040
132.49487246573051
1040
1.0
1040
168.95320665367231
1040
132.8960871071902
1040
1.0
1040
168.55203482737841
1040
133.29731235578919
1040
1.0
1070
     1
1040
168.55203482737841
1040
133.29731235578919
1040
168.55203482737841
1040
126.04694619902391
1070
     1
1040
168.55203482737841
1040
126.04694619902391
1040
169.80203482737841
1040
126.04694619902391
1071
        0
1070
     0
1070
     1
1040
0.0
1040
1.0
1070
     0
1070
     1
1040
0.7853981633974483
1040
0.0
1040
0.0
1040
-2.2450640302672871
1040
2.245064030267288
1070
     0
1071
        1
1040
0.0
1040
0.0
1040
0.0
1002
}
  0
DIMENSION
  5
1DB
  8
LINIEN-DÜNN
  2
*D15
 10
153.05203482737841
 20
156.04608104084721
 30
0.0
 11
145.3431837541716
 21
148.14512822036269
 31
0.0
 70
   132
  1
<>
 15
151.65533099508639
 25
154.61457190540281
 35
0.0
 40
0.0
  0
DIMENSION
  5
1E4
  8
LINIEN-DÜNN
  2
*D16
 10
166.55203482737841
 20
182.0125211940107
 30
0.0
 11
162.9798512985526
 21
185.20596339808219
 31
0.0
 70
   132
  1
<>
 15
168.04308584236219
 25
180.67956700473189
 35
0.0
 40
0.0
  0
DIMENSION
  5
1EE
  8
LINIEN-DÜNN
  2
*D17
 10
137.120673344967
 20
154.0488219713381
 30
0.0
 11
137.120673344967
 21
166.04694619902389
 31
0.0
 70
   128
 13
152.94736291489261
 23
178.0450704267096
 33
0.0
 14
152.94736291489261
 24
154.0488219713381
 34
0.0
 50
90.000000000000185
  0
DIMENSION
  5
1F8
  8
LINIEN-DÜNN
  2
*D18
 10
152.94736291489249
 20
178.0450704267096
 30
0.0
 11
183.0624490720536
 21
172.8304860252089
 31
0.0
 70
   130
 13
144.7851266781571
 23
166.04694619902361
 33
0.0
 14
176.94437909309201
 24
166.04694619902361
 34
0.0
 15
166.67474348298009
 25
178.7644919576563
 35
0.0
 16
183.1117819311867
 26
170.5695930995584
 36
0.0
1001
ACAD
1000
DSTYLE
1002
{
1070
   271
1070
     2
1002
}
  0
INSERT
  5
205
  8
0
  2
*U101
 10
0.0
 20
0.0
 30
0.0
  0
ARC
  5
206
  8
0
  6
CONTINUOUS
 62
     7
 10
72.718582502746713
 20
248.05669398977409
 30
0.0
 40
2.0
 50
270.0000000000008
 51
357.00000000000091
  0
ARC
  5
207
  8
0
  6
CONTINUOUS
 62
     7
 10
70.764300414729163
 20
248.1066939897741
 30
0.0
 40
3.2999999999999989
 50
183.00000000000051
 51
270.0000000000008
  0
ARC
  5
208
  8
0
  6
CONTINUOUS
 62
     7
 10
70.716852186393425
 20
248.05669398977409
 30
0.0
 40
2.0000000000000049
 50
182.9999999999998
 51
270.0000000000008
  0
ARC
  5
209
  8
0
  6
CONTINUOUS
 62
     7
 10
78.730740567892582
 20
261.50669398977408
 30
0.0
 40
3.3000000000000109
 50
90.0
 51
176.99999999999929
  0
LINE
  5
20A
  8
0
  6
CONTINUOUS
 62
     7
 10
66.749401419092422
 20
261.66136590226
 30
0.0
 11
67.468822950039055
 21
247.93398533417241
 31
0.0
  0
ARC
  5
20B
  8
0
  6
CONTINUOUS
 62
     7
 10
64.752142349583281
 20
261.55669398977409
 30
0.0
 40
2.0
 50
3.000000000000715
 51
90.0
  0
ARC
  5
20C
  8
0
  6
CONTINUOUS
 62
     7
 10
64.704694121247542
 20
261.50669398977408
 30
0.0
 40
3.3000000000000109
 50
3.0000000000006559
 51
90.0
  0
LINE
  5
20D
  8
0
  6
CONTINUOUS
 62
     7
 10
64.752142349583281
 20
263.55669398977409
 30
0.0
 11
54.217717344570048
 21
263.55669398977409
 31
0.0
  0
LINE
  5
20E
  8
0
  6
CONTINUOUS
 62
     7
 10
89.217717344570062
 20
263.55669398977409
 30
0.0
 11
78.683292339556843
 21
263.55669398977409
 31
0.0
  0
LINE
  5
20F
  8
0
  6
CONTINUOUS
 62
     7
 10
89.217717344570062
 20
263.55669398977409
 30
0.0
 11
89.217717344570062
 21
264.80669398977409
 31
0.0
  0
ARC
  5
210
  8
0
  6
CONTINUOUS
 62
     7
 10
78.683292339556843
 20
261.55669398977409
 30
0.0
 40
2.000000000000008
 50
90.0
 51
176.99999999999929
  0
ARC
  5
211
  8
0
  6
CONTINUOUS
 62
     7
 10
72.67113427441096
 20
248.1066939897741
 30
0.0
 40
3.2999999999999989
 50
270.0000000000008
 51
357.00000000000108
  0
LINE
  5
212
  8
0
  6
CONTINUOUS
 62
     7
 10
75.966611739101054
 20
247.93398533417241
 30
0.0
 11
76.686033270047687
 21
261.66136590226
 31
0.0
  0
LINE
  5
213
  8
0
  6
CONTINUOUS
 62
     7
 10
54.217717344570048
 20
264.80669398977409
 30
0.0
 11
54.217717344570048
 21
263.55669398977409
 31
0.0
  0
LINE
  5
214
  8
0
  6
CONTINUOUS
 62
     7
 10
70.716852186393425
 20
246.05669398977409
 30
0.0
 11
72.718582502746713
 21
246.05669398977409
 31
0.0
  0
LINE
  5
215
  8
0
  6
CONTINUOUS
 62
     7
 10
70.764300414729163
 20
244.80669398977409
 30
0.0
 11
72.67113427441096
 21
244.80669398977409
 31
0.0
  0
LINE
  5
216
  8
0
  6
CONTINUOUS
 62
     7
 10
68.000171585937636
 20
261.67940264537589
 30
0.0
 11
68.719593116884269
 21
247.95202207728829
 31
0.0
  0
LINE
  5
217
  8
0
  6
CONTINUOUS
 62
     7
 10
74.715841572255854
 20
247.95202207728829
 30
0.0
 11
75.435263103202487
 21
261.67940264537589
 31
0.0
  0
LINE
  5
218
  8
0
  6
CONTINUOUS
 62
     7
 10
78.730740567892582
 20
264.80669398977409
 30
0.0
 11
89.217717344570062
 21
264.80669398977409
 31
0.0
  0
LINE
  5
219
  8
0
  6
CONTINUOUS
 62
     7
 10
54.217717344570048
 20
264.80669398977409
 30
0.0
 11
64.704694121247542
 21
264.80669398977409
 31
0.0
  0
LINE
  5
21A
  8
0
  6
CONTINUOUS
 62
     7
 10
64.704694121247542
 20
264.80669398977409
 30
0.0
 11
78.730740567892582
 21
264.80669398977409
 31
0.0
  0
INSERT
  5
22C
  8
0
  6
CONTINUOUS
 62
     7
  2
SW_HATCH_0
 10
56.997333162966299
 20
263.55669398977409
 30
0.0
  0
DIMENSION
  5
22D
  8
LINIEN-DÜNN
  2
*D20
 10
64.752142349583295
 20
261.5566939897742
 30
0.0
 11
61.67498013946981
 21
257.92693053739708
 31
0.0
 70
   132
  1
<>
 15
66.045453086857023
 25
263.08225858586712
 35
0.0
 40
0.0
  0
DIMENSION
  5
235
  8
LINIEN-DÜNN
  2
*D21
 10
72.718582502746713
 20
248.05669398977409
 30
0.0
 11
79.847806674618539
 21
241.05670398977421
 31
0.0
 70
   132
  1
<>
 15
74.145669623755623
 25
246.6554722553401
 35
0.0
 40
0.0
  0
DIMENSION
  5
23E
  8
LINIEN-DÜNN
  2
*D22
 10
74.715841572255854
 20
236.1260071518314
 30
0.0
 11
71.717717344570062
 21
236.1260071518314
 31
0.0
 70
   128
 13
68.719593116884269
 23
247.95202207728829
 33
0.0
 14
74.715841572255854
 24
247.95202207728829
 34
0.0
  0
DIMENSION
  5
24A
  8
LINIEN-DÜNN
  2
*D23
 10
72.719593116884283
 20
247.95202207728829
 30
0.0
 11
73.451356371291183
 21
277.29323766243863
 31
0.0
 70
   130
 13
75.717717344570076
 23
242.25845140963389
 33
0.0
 14
75.717717344570076
 24
269.73016827426619
 34
0.0
 15
72.000171585937636
 25
261.67940264537589
 35
0.0
 16
74.206714137700573
 26
277.30971962753409
 36
0.0
1001
ACAD
1000
DSTYLE
1002
{
1070
   271
1070
     2
1002
}
  0
DIMENSION
  5
256
  8
LINIEN-DÜNN
  2
*D24
 10
49.574040245538853
 20
244.8066939897742
 30
0.0
 11
49.574040245538853
 21
254.80669398977409
 31
0.0
 70
   128
 13
54.217717344570048
 23
264.80669398977409
 33
0.0
 14
70.764300414729163
 24
244.8066939897742
 34
0.0
 50
90.000000000000185
  0
DIMENSION
  5
262
  8
LINIEN-DÜNN
  2
*D25
 10
97.47944238886349
 20
264.80669398977409
 30
0.0
 11
97.479442388863504
 21
272.18915033890607
 31
0.0
 70
   128
 13
89.217717344570062
 23
263.5566939897742
 33
0.0
 14
89.217717344570076
 24
264.80669398977409
 34
0.0
 50
90.000000000000185
  0
INSERT
  5
26E
  8
0
  2
*U109
 10
0.0
 20
0.0
 30
0.0
  0
LINE
  5
26F
  8
LINIEN-DÜNN
  6
CENTERX2
 10
75.717717344570076
 20
242.25845140963389
 30
0.0
 11
75.717717344570076
 21
269.73016827426619
 31
0.0
  0
ENDSEC
  0
EOF
