  0
SECTION
  2
HEADER
  9
$ACADVER
  1
AC1021
  9
$ACADMAINTVER
 70
     1
  9
$DWGCODEPAGE
  3
ANSI_1252
  9
$LASTSAVEDBY
  1
uns
  9
$CUSTOMPROPERTYTAG
  1
AmdtFileType
  9
$CUSTOMPROPERTY
  1
83
  9
$INSBASE
 10
0.0
 20
0.0
 30
0.0
  9
$EXTMIN
 10
87.92742630243351
 20
20.02823452003633
 30
0.0
  9
$EXTMAX
 10
343.4063857623822
 20
288.4504763811305
 30
0.0
  9
$LIMMIN
 10
0.0
 20
0.0
  9
$LIMMAX
 10
420.0
 20
297.0
  9
$ORTHOMODE
 70
     0
  9
$REGENMODE
 70
     1
  9
$FILLMODE
 70
     1
  9
$QTEXTMODE
 70
     0
  9
$MIRRTEXT
 70
     1
  9
$LTSCALE
 40
1.0
  9
$ATTMODE
 70
     1
  9
$TEXTSIZE
 40
3.5
  9
$TRACEWID
 40
1.0
  9
$TEXTSTYLE
  7
STANDARD
  9
$CLAYER
  8
AM_0
  9
$CELTYPE
  6
BYLAYER
  9
$CECOLOR
 62
   256
  9
$CELTSCALE
 40
1.0
  9
$DISPSILH
 70
     0
  9
$DIMSCALE
 40
2.0
  9
$DIMASZ
 40
3.0
  9
$DIMEXO
 40
0.0
  9
$DIMDLI
 40
10.0
  9
$DIMRND
 40
0.0
  9
$DIMDLE
 40
0.0
  9
$DIMEXE
 40
1.0
  9
$DIMTP
 40
0.1
  9
$DIMTM
 40
0.1
  9
$DIMTXT
 40
3.5
  9
$DIMCEN
 40
0.0
  9
$DIMTSZ
 40
0.0
  9
$DIMTOL
 70
     0
  9
$DIMLIM
 70
     0
  9
$DIMTIH
 70
     0
  9
$DIMTOH
 70
     0
  9
$DIMSE1
 70
     0
  9
$DIMSE2
 70
     0
  9
$DIMTAD
 70
     1
  9
$DIMZIN
 70
     8
  9
$DIMBLK
  1

  9
$DIMASO
 70
     1
  9
$DIMSHO
 70
     1
  9
$DIMPOST
  1

  9
$DIMAPOST
  1
"
  9
$DIMALT
 70
     0
  9
$DIMALTD
 70
     2
  9
$DIMALTF
 40
0.0393701
  9
$DIMLFAC
 40
1.0
  9
$DIMTOFL
 70
     1
  9
$DIMTVP
 40
0.0
  9
$DIMTIX
 70
     0
  9
$DIMSOXD
 70
     0
  9
$DIMSAH
 70
     0
  9
$DIMBLK1
  1

  9
$DIMBLK2
  1

  9
$DIMSTYLE
  2
AM_ISO
  9
$DIMCLRD
 70
   256
  9
$DIMCLRE
 70
   256
  9
$DIMCLRT
 70
     2
  9
$DIMTFAC
 40
0.71
  9
$DIMGAP
 40
1.5
  9
$DIMJUST
 70
     0
  9
$DIMSD1
 70
     0
  9
$DIMSD2
 70
     0
  9
$DIMTOLJ
 70
     0
  9
$DIMTZIN
 70
     0
  9
$DIMALTZ
 70
     0
  9
$DIMALTTZ
 70
     0
  9
$DIMUPT
 70
     0
  9
$DIMDEC
 70
     2
  9
$DIMTDEC
 70
     2
  9
$DIMALTU
 70
     2
  9
$DIMALTTD
 70
     2
  9
$DIMTXSTY
  7
STANDARD
  9
$DIMAUNIT
 70
     0
  9
$DIMADEC
 70
     0
  9
$DIMALTRND
 40
0.0
  9
$DIMAZIN
 70
     2
  9
$DIMDSEP
 70
    46
  9
$DIMATFIT
 70
     3
  9
$DIMFRAC
 70
     0
  9
$DIMLDRBLK
  1

  9
$DIMLUNIT
 70
     2
  9
$DIMLWD
 70
    -1
  9
$DIMLWE
 70
    -1
  9
$DIMTMOVE
 70
     0
  9
$DIMFXL
 40
1.0
  9
$DIMFXLON
 70
     0
  9
$DIMJOGANG
 40
0.7853981633974483
  9
$DIMTFILL
 70
     0
  9
$DIMTFILLCLR
 70
     0
  9
$DIMARCSYM
 70
     0
  9
$DIMLTYPE
  6

  9
$DIMLTEX1
  6

  9
$DIMLTEX2
  6

  9
$LUNITS
 70
     2
  9
$LUPREC
 70
     4
  9
$SKETCHINC
 40
1.0
  9
$FILLETRAD
 40
10.0
  9
$AUNITS
 70
     0
  9
$AUPREC
 70
     2
  9
$MENU
  1
.
  9
$ELEVATION
 40
0.0
  9
$PELEVATION
 40
0.0
  9
$THICKNESS
 40
0.0
  9
$LIMCHECK
 70
     0
  9
$CHAMFERA
 40
10.0
  9
$CHAMFERB
 40
10.0
  9
$CHAMFERC
 40
20.0
  9
$CHAMFERD
 40
0.0
  9
$SKPOLY
 70
     1
  9
$TDCREATE
 40
2452066.319937327
  9
$TDUCREATE
 40
2452066.278270660
  9
$TDUPDATE
 40
2453942.376958970
  9
$TDUUPDATE
 40
2453942.335292303
  9
$TDINDWG
 40
0.0956911690
  9
$TDUSRTIMER
 40
0.0956909375
  9
$USRTIMER
 70
     1
  9
$ANGBASE
 50
0.0
  9
$ANGDIR
 70
     0
  9
$PDMODE
 70
     0
  9
$PDSIZE
 40
0.0
  9
$PLINEWID
 40
0.0
  9
$SPLFRAME
 70
     0
  9
$SPLINETYPE
 70
     6
  9
$SPLINESEGS
 70
    16
  9
$HANDSEED
  5
31D0
  9
$SURFTAB1
 70
     6
  9
$SURFTAB2
 70
     6
  9
$SURFTYPE
 70
     6
  9
$SURFU
 70
     6
  9
$SURFV
 70
     6
  9
$UCSBASE
  2

  9
$UCSNAME
  2

  9
$UCSORG
 10
0.0
 20
0.0
 30
0.0
  9
$UCSXDIR
 10
1.0
 20
0.0
 30
0.0
  9
$UCSYDIR
 10
0.0
 20
1.0
 30
0.0
  9
$UCSORTHOREF
  2

  9
$UCSORTHOVIEW
 70
     0
  9
$UCSORGTOP
 10
0.0
 20
0.0
 30
0.0
  9
$UCSORGBOTTOM
 10
0.0
 20
0.0
 30
0.0
  9
$UCSORGLEFT
 10
0.0
 20
0.0
 30
0.0
  9
$UCSORGRIGHT
 10
0.0
 20
0.0
 30
0.0
  9
$UCSORGFRONT
 10
0.0
 20
0.0
 30
0.0
  9
$UCSORGBACK
 10
0.0
 20
0.0
 30
0.0
  9
$PUCSBASE
  2

  9
$PUCSNAME
  2

  9
$PUCSORG
 10
0.0
 20
0.0
 30
0.0
  9
$PUCSXDIR
 10
1.0
 20
0.0
 30
0.0
  9
$PUCSYDIR
 10
0.0
 20
1.0
 30
0.0
  9
$PUCSORTHOREF
  2

  9
$PUCSORTHOVIEW
 70
     0
  9
$PUCSORGTOP
 10
0.0
 20
0.0
 30
0.0
  9
$PUCSORGBOTTOM
 10
0.0
 20
0.0
 30
0.0
  9
$PUCSORGLEFT
 10
0.0
 20
0.0
 30
0.0
  9
$PUCSORGRIGHT
 10
0.0
 20
0.0
 30
0.0
  9
$PUCSORGFRONT
 10
0.0
 20
0.0
 30
0.0
  9
$PUCSORGBACK
 10
0.0
 20
0.0
 30
0.0
  9
$USERI1
 70
     0
  9
$USERI2
 70
     0
  9
$USERI3
 70
     0
  9
$USERI4
 70
     0
  9
$USERI5
 70
     0
  9
$USERR1
 40
0.0
  9
$USERR2
 40
0.0
  9
$USERR3
 40
0.0
  9
$USERR4
 40
0.0
  9
$USERR5
 40
0.0
  9
$WORLDVIEW
 70
     1
  9
$SHADEDGE
 70
     3
  9
$SHADEDIF
 70
    70
  9
$TILEMODE
 70
     1
  9
$MAXACTVP
 70
    48
  9
$PINSBASE
 10
0.0
 20
0.0
 30
0.0
  9
$PLIMCHECK
 70
     0
  9
$PEXTMIN
 10
1.000000000000000E+20
 20
1.000000000000000E+20
 30
1.000000000000000E+20
  9
$PEXTMAX
 10
-1.000000000000000E+20
 20
-1.000000000000000E+20
 30
-1.000000000000000E+20
  9
$PLIMMIN
 10
-5.027083396911621
 20
-5.111741065979003
  9
$PLIMMAX
 10
204.9885873794556
 20
291.8989095687866
  9
$UNITMODE
 70
     0
  9
$VISRETAIN
 70
     1
  9
$PLINEGEN
 70
     0
  9
$PSLTSCALE
 70
     1
  9
$TREEDEPTH
 70
  3020
  9
$CMLSTYLE
  2
STANDARD
  9
$CMLJUST
 70
     0
  9
$CMLSCALE
 40
1.0
  9
$PROXYGRAPHICS
 70
     1
  9
$MEASUREMENT
 70
     1
  9
$CELWEIGHT
370
    -1
  9
$ENDCAPS
280
     0
  9
$JOINSTYLE
280
     0
  9
$LWDISPLAY
290
     0
  9
$INSUNITS
 70
     0
  9
$HYPERLINKBASE
  1

  9
$STYLESHEET
  1
LAA4.ctb
  9
$XEDIT
290
     1
  9
$CEPSNTYPE
380
     0
  9
$PSTYLEMODE
290
     1
  9
$FINGERPRINTGUID
  2
{9DE0F4BE-022B-11D3-8698-0060B085A428}
  9
$VERSIONGUID
  2
{C50721D9-75E2-4C53-BD55-E33045BFA06D}
  9
$EXTNAMES
290
     1
  9
$PSVPSCALE
 40
0.0
  9
$OLESTARTUP
290
     0
  9
$SORTENTS
280
    96
  9
$INDEXCTL
280
     1
  9
$HIDETEXT
280
     0
  9
$XCLIPFRAME
290
     0
  9
$HALOGAP
280
     0
  9
$OBSCOLOR
 70
   257
  9
$OBSLTYPE
280
     0
  9
$INTERSECTIONDISPLAY
280
     0
  9
$INTERSECTIONCOLOR
 70
   257
  9
$DIMASSOC
280
     1
  9
$PROJECTNAME
  1

  9
$CAMERADISPLAY
290
     0
  9
$LENSLENGTH
 40
50.0
  9
$CAMERAHEIGHT
 40
0.0
  9
$STEPSPERSEC
 40
2.0
  9
$STEPSIZE
 40
6.0
  9
$3DDWFPREC
 40
2.0
  9
$PSOLWIDTH
 40
0.25
  9
$PSOLHEIGHT
 40
4.0
  9
$LOFTANG1
 40
1.570796326794896
  9
$LOFTANG2
 40
1.570796326794896
  9
$LOFTMAG1
 40
0.0
  9
$LOFTMAG2
 40
0.0
  9
$LOFTPARAM
 70
     7
  9
$LOFTNORMALS
280
     1
  9
$LATITUDE
 40
37.795
  9
$LONGITUDE
 40
-122.394
  9
$NORTHDIRECTION
 40
0.0
  9
$TIMEZONE
 70
 -8000
  9
$LIGHTGLYPHDISPLAY
280
     1
  9
$TILEMODELIGHTSYNCH
280
     1
  9
$CMATERIAL
347
2396
  9
$SOLIDHIST
280
     1
  9
$SHOWHIST
280
     1
  9
$DWFFRAME
280
     2
  9
$DGNFRAME
280
     0
  9
$REALWORLDSCALE
290
     1
  9
$INTERFERECOLOR
 62
     1
  9
$INTERFEREOBJVS
345
23A3
  9
$INTERFEREVPVS
346
23A0
  9
$CSHADOW
280
     0
  9
$SHADOWPLANELOCATION
 40
0.0
  0
ENDSEC
  0
SECTION
  2
CLASSES
  0
CLASS
  1
DICTIONARYVAR
  2
AcDbDictionaryVar
  3
ObjectDBX Classes
 90
        0
 91
        4
280
     0
281
     0
  0
CLASS
  1
ACMESTATEMGR
  2
AcMeStateMgr
  3
AcMeServices
 90
        0
 91
        1
280
     0
281
     0
  0
CLASS
  1
ACMESCOPE
  2
AcMeScope
  3
AcMeServices
 90
        0
 91
        1
280
     0
281
     0
  0
CLASS
  1
ACMECOMMANDHISTORY
  2
AcMeCommandHistory
  3
AcMeServices
 90
        0
 91
        1
280
     0
281
     0
  0
CLASS
  1
ACRFINSADJUSTERMGR
  2
AcRfInsAdjusterMgr
  3
AcMeServices
 90
        0
 91
        1
280
     0
281
     0
  0
CLASS
  1
ACMEDRAWINGMAN
  2
AcMeDrawingMan
  3
AcMeServices
 90
        0
 91
        1
280
     0
281
     0
  0
CLASS
  1
AMATTR
  2
AcMeAttribute
  3
AcMeServices
 90
        0
 91
        0
280
     0
281
     0
  0
CLASS
  1
ACMEBOMCOLUMN
  2
AcMeBOMColumn
  3
AcMeServices
 90
        0
 91
        0
280
     0
281
     0
  0
CLASS
  1
ACMEBOMCONF
  2
AcMeBOMConf
  3
AcMeServices
 90
        0
 91
        0
280
     0
281
     0
  0
CLASS
  1
ACMEBOMTABLE
  2
AcMeBOMTable
  3
AcMeServices
 90
        0
 91
        0
280
     0
281
     0
  0
CLASS
  1
ACMEBOMENTRY
  2
AcMeBOMEntry
  3
AcMeServices
 90
        0
 91
        0
280
     0
281
     0
  0
CLASS
  1
ACMEVIEW
  2
AcMeView
  3
AcMeServices
 90
        0
 91
        0
280
     0
281
     0
  0
CLASS
  1
ACGREFMASTER
  2
AcGrefMaster
  3
AcAttribServices
 90
        0
 91
        1
280
     0
281
     0
  0
CLASS
  1
AMIMASTER
  2
AmiMaster
  3
AmiServices
 90
        0
 91
        1
280
     0
281
     0
  0
CLASS
  1
ACASGREFMASTER
  2
AcAsGrefMaster
  3
AutoSurfResolverServices
 90
        0
 91
        1
280
     0
281
     0
  0
CLASS
  1
ADAPPL
  2
AcAdAppl
  3
DesignerServices
 90
        0
 91
        1
280
     0
281
     0
  0
CLASS
  1
DEPMGR
  2
AcAdDepMgr
  3
DesignerServices
 90
        0
 91
        1
280
     0
281
     0
  0
CLASS
  1
PARAMMGR
  2
AcAdParamMgr
  3
DesignerServices
 90
        0
 91
        1
280
     0
281
     0
  0
CLASS
  1
PARAMSCOPE
  2
AcAdParamScope
  3
DesignerServices
 90
        0
 91
        3
280
     0
281
     0
  0
CLASS
  1
ACIMSYSVARMAN
  2
AcImSysVarManager
  3
AcMeServices
 90
        0
 91
        6
280
     0
281
     0
  0
CLASS
  1
ACIMINTSYSVAR
  2
AcImIntSysVar
  3
AcMeServices
 90
        0
 91
       48
280
     0
281
     0
  0
CLASS
  1
ACIMREALSYSVAR
  2
AcImRealSysVar
  3
AcMeServices
 90
        0
 91
       16
280
     0
281
     0
  0
CLASS
  1
ACIMSTRSYSVAR
  2
AcImStrSysVar
  3
AcMeServices
 90
        0
 91
       14
280
     0
281
     0
  0
CLASS
  1
NAMEDAPPL
  2
AcAdNamedAppl
  3
DesignerServices
 90
        0
 91
        1
280
     0
281
     0
  0
CLASS
  1
ADHNTMPLT
  2
AdHoleNoteTemplateMgr
  3
DesignerServices
 90
        0
 91
        0
280
     0
281
     0
  0
CLASS
  1
AM_HNTEMPLATE_MGR_NAME
  2
AdHoleNoteTemplateMgrName
  3
DesignerServices
 90
        0
 91
        0
280
     0
281
     0
  0
CLASS
  1
ACADGREFMODULE
  2
AcAdGrefModule
  3
AdGrefServices
 90
        0
 91
        1
280
     0
281
     0
  0
CLASS
  1
AM_DRAWING_MGR
  2
AcDmDwgMgr
  3
AcMechDwgViewMgmt
 90
        0
 91
        1
280
     0
281
     0
  0
CLASS
  1
AM_DWG_DOCUMENT
  2
AcDmDwgDocument
  3
AcMechDwgViewMgmt
 90
        0
 91
        1
280
     0
281
     0
  0
CLASS
  1
AM_DWG_SHEET
  2
AcDmSheet
  3
AcMechDwgViewMgmt
 90
        0
 91
        5
280
     0
281
     0
  0
CLASS
  1
AM_VIEWDIMPARMAP
  2
AcDmViewDimParMap
  3
AcMechDwgViewMgmt
 90
        0
 91
        5
280
     0
281
     0
  0
CLASS
  1
AM_DWGMGR_NAME
  2
AcDmDwgMgrName
  3
AcMechDwgViewMgmt
 90
        0
 91
        1
280
     0
281
     0
  0
CLASS
  1
ACAMPROJECT
  2
AcAmProject
  3
DesignerAssemblies
 90
        0
 91
        1
280
     0
281
     0
  0
CLASS
  1
ACAMGRCOMPSET
  2
AcAmGrCompSet
  3
DesignerAssemblies
 90
        0
 91
        0
280
     0
281
     0
  0
CLASS
  1
ACAMGRCOMPDEFSET
  2
AcAmGrCompDefSet
  3
DesignerAssemblies
 90
        0
 91
        1
280
     0
281
     0
  0
CLASS
  1
ACAMGRCOMPDEF
  2
AcAmGrCompDef
  3
DesignerAssemblies
 90
        0
 91
        2
280
     0
281
     0
  0
CLASS
  1
ACCMCONTEXT
  2
AcCmContext
  3
DesignerAssemblies
 90
        0
 91
        2
280
     0
281
     0
  0
CLASS
  1
ACAMCOMPDEF
  2
AcAmCompDef
  3
DesignerAssemblies
 90
        0
 91
        2
280
     0
281
     0
  0
CLASS
  1
ACAMCOMPDEFMGR
  2
AcAmCompDefMgr
  3
DesignerAssemblies
 90
        0
 91
        1
280
     0
281
     0
  0
CLASS
  1
AMCONTEXTMGR
  2
AcAmContextMgr
  3
DesignerAssemblies
 90
        0
 91
        1
280
     0
281
     0
  0
CLASS
  1
ACAMCONTEXTMODELER
  2
AcAmContextModeler
  3
DesignerAssemblies
 90
        0
 91
        0
280
     0
281
     0
  0
CLASS
  1
ACDMVIEWGEOM
  2
AcDmViewGeometry
  3
AcMechDwgViewMgmt
 90
        0
 91
        1
280
     0
281
     1
  0
CLASS
  1
CBROWSERAPPOBJECT
  2
CBrowserAppObject
  3
McadcomServices
 90
        0
 91
        3
280
     0
281
     0
  0
CLASS
  1
IM_STATIC_MAN
  2
AcImStaticVarManager
  3
AcMeServices
 90
        0
 91
        1
280
     0
281
     0
  0
CLASS
  1
ASAPP
  2
AcAsAppObject
  3
AutoSurfServices
 90
        0
 91
        1
280
     0
281
     0
  0
CLASS
  1
ACIMDBLSTATICVAR
  2
AcImDblStaticVar
  3
AcMeServices
 90
        0
 91
       22
280
     0
281
     0
  0
CLASS
  1
ACIMSTRSTATICVAR
  2
AcImStrStaticVar
  3
AcMeServices
 90
        0
 91
       13
280
     0
281
     0
  0
CLASS
  1
ACIMINTSTATICVAR
  2
AcImIntStaticVar
  3
AcMeServices
 90
        0
 91
       17
280
     0
281
     0
  0
CLASS
  1
CATALOGSTATE
  2
AcAmCatalogState
  3
DesignerAssemblies
 90
        0
 91
        1
280
     0
281
     0
  0
CLASS
  1
DM_PLACEHOLDER
  2
AcDmSelsetPlaceholder
  3
AcMechDwgViewMgmt
 90
        0
 91
        1
280
     0
281
     0
  0
CLASS
  1
LAYER_INDEX
  2
AcDbLayerIndex
  3
ObjectDBX Classes
 90
        0
 91
        1
280
     0
281
     0
  0
CLASS
  1
IDBUFFER
  2
AcDbIdBuffer
  3
ObjectDBX Classes
 90
        0
 91
       26
280
     0
281
     0
  0
CLASS
  1
ACMSTANDARDJIS
  2
AcmStandardJIS
  3
"Amdt_StdImp|Product Description: AutoCAD Mechanical|Company: Autodesk"
 90
        0
 91
        1
280
     0
281
     0
  0
CLASS
  1
ACMSTANDARDANSI
  2
AcmStandardANSI
  3
"Amdt_StdImp|Product Description: AutoCAD Mechanical|Company: Autodesk"
 90
        0
 91
        1
280
     0
281
     0
  0
CLASS
  1
ACMSTANDARDBSI
  2
AcmStandardBSI
  3
"Amdt_StdImp|Product Description: AutoCAD Mechanical|Company: Autodesk"
 90
        0
 91
        1
280
     0
281
     0
  0
CLASS
  1
ACMSTANDARDDIN
  2
AcmStandardDIN
  3
"Amdt_StdImp|Product Description: AutoCAD Mechanical|Company: Autodesk"
 90
        0
 91
        1
280
     0
281
     0
  0
CLASS
  1
ACMSTANDARDISO
  2
AcmStandardISO
  3
"Amdt_StdImp|Product Description: AutoCAD Mechanical|Company: Autodesk"
 90
        0
 91
        1
280
     0
281
     0
  0
CLASS
  1
ACDBDICTIONARYWDFLT
  2
AcDbDictionaryWithDefault
  3
ObjectDBX Classes
 90
        0
 91
        1
280
     0
281
     0
  0
CLASS
  1
ACME_DOCUMENT
  2
AcMeDbDoc
  3
AcMeServices
 90
        0
 91
        2
280
     0
281
     0
  0
CLASS
  1
AMGSETTINGSOBJ
  2
AmgSettingsObj
  3
"AcadM|Product Description: AutoCAD Mechanical|Company: Autodesk"
 90
        0
 91
        4
280
     0
281
     0
  0
CLASS
  1
AMGOBJPROPCFG
  2
AmgObjPropCfg
  3
"AmgLay|Product Description: AutoCAD Mechanical|Company: Autodesk"
 90
        1
 91
        1
280
     0
281
     0
  0
CLASS
  1
ACDBENTITYCACHE
  2
AcMeEntityCache
  3
AcMeServices
 90
        0
 91
        1
280
     0
281
     0
  0
CLASS
  1
GSMANAGER
  2
AcMeGSManager
  3
AcMeServices
 90
        0
 91
        1
280
     0
281
     0
  0
CLASS
  1
AMDTINTERNALREACTOR
  2
AmdtInternalReactor
  3
AcMeServices
 90
        0
 91
        6
280
     0
281
     0
  0
CLASS
  1
ACME_DATABASE
  2
AcMeDbDatabase
  3
AcMeServices
 90
        0
 91
        1
280
     0
281
     0
  0
CLASS
  1
ACGREFACADMASTER
  2
AcGrefacadMaster
  3
AcGrefServices
 90
        0
 91
        1
280
     0
281
     0
  0
CLASS
  1
AMDTMENUSTATEMGR
  2
AmdtMenuStateMgr
  3
McadcomServices
 90
        0
 91
        1
280
     0
281
     0
  0
CLASS
  1
AMDTMCOMMENUSTATE
  2
AmdtMcomMenuState
  3
McadcomServices
 90
        0
 91
        1
280
     0
281
     0
  0
CLASS
  1
MAPIADMODULE
  2
MApiAdModule
  3
MApiAdServices
 90
        0
 91
        1
280
     0
281
     0
  0
CLASS
  1
AMDTDMMENUSTATE
  2
AmdtDmMenuState
  3
AcMechDwgViewMgmt
 90
        0
 91
        1
280
     0
281
     0
  0
CLASS
  1
AMDTADMENUSTATE
  2
AmdtAdMenuState
  3
DesignerServices
 90
        0
 91
        1
280
     0
281
     0
  0
CLASS
  1
AMDTAMMENUSTATE
  2
AmdtAmMenuState
  3
DesignerAssemblies
 90
        0
 91
        1
280
     0
281
     0
  0
CLASS
  1
ACMDATADICTIONARY
  2
AcmDataDictionary
  3
"AcmSymBB|Product Description: AutoCAD Mechanical|Company: Autodesk"
 90
        0
 91
        1
280
     0
281
     0
  0
CLASS
  1
ACMDATAENTRYBLOCK
  2
AcmDataEntryBlock
  3
"AcmSymBB|Product Description: AutoCAD Mechanical|Company: Autodesk"
 90
        0
 91
        1
280
     0
281
     0
  0
CLASS
  1
ACMSURFSTANDARDJIS
  2
AcmSurfTextStdJIS
  3
"Amdt_StdImp|Product Description: AutoCAD Mechanical|Company: Autodesk"
 90
        0
 91
        1
280
     0
281
     0
  0
CLASS
  1
ACMFCFSTANDARDJIS
  2
AcmFCFStdJIS
  3
"Amdt_StdImp|Product Description: AutoCAD Mechanical|Company: Autodesk"
 90
        0
 91
        1
280
     0
281
     0
  0
CLASS
  1
ACMWELDSTANDARDJIS
  2
AcmWeldingStdJIS
  3
"Amdt_StdImp|Product Description: AutoCAD Mechanical|Company: Autodesk"
 90
        0
 91
        1
280
     0
281
     0
  0
CLASS
  1
ACMIDSTANDARDJIS
  2
AcmIdStdJIS
  3
"Amdt_StdImp|Product Description: AutoCAD Mechanical|Company: Autodesk"
 90
        0
 91
        1
280
     0
281
     0
  0
CLASS
  1
ACMDATUMSTANDARDJIS
  2
AcmDatumStdJIS
  3
"Amdt_StdImp|Product Description: AutoCAD Mechanical|Company: Autodesk"
 90
        0
 91
        1
280
     0
281
     0
  0
CLASS
  1
ACMBOMSTANDARDJIS
  2
AcmBOMStdJIS
  3
"Amdt_StdImp|Product Description: AutoCAD Mechanical|Company: Autodesk"
 90
        0
 91
        1
280
     0
281
     0
  0
CLASS
  1
ACMSURFSTANDARDANSI
  2
AcmSurfTextStdANSI
  3
"Amdt_StdImp|Product Description: AutoCAD Mechanical|Company: Autodesk"
 90
        0
 91
        1
280
     0
281
     0
  0
CLASS
  1
ACMFCFSTANDARDANSI
  2
AcmFCFStdANSI
  3
"Amdt_StdImp|Product Description: AutoCAD Mechanical|Company: Autodesk"
 90
        0
 91
        1
280
     0
281
     0
  0
CLASS
  1
ACMWELDSTANDARDANSI
  2
AcmWeldingStdANSI
  3
"Amdt_StdImp|Product Description: AutoCAD Mechanical|Company: Autodesk"
 90
        0
 91
        1
280
     0
281
     0
  0
CLASS
  1
ACMIDSTANDARDANSI
  2
AcmIdStdANSI
  3
"Amdt_StdImp|Product Description: AutoCAD Mechanical|Company: Autodesk"
 90
        0
 91
        1
280
     0
281
     0
  0
CLASS
  1
ACMDATUMSTANDARDANSI
  2
AcmDatumStdANSI
  3
"Amdt_StdImp|Product Description: AutoCAD Mechanical|Company: Autodesk"
 90
        0
 91
        1
280
     0
281
     0
  0
CLASS
  1
ACMBOMSTANDARDANSI
  2
AcmBOMStdANSI
  3
"Amdt_StdImp|Product Description: AutoCAD Mechanical|Company: Autodesk"
 90
        0
 91
        1
280
     0
281
     0
  0
CLASS
  1
ACMSURFSTANDARDBSI
  2
AcmSurfTextStdBSI
  3
"Amdt_StdImp|Product Description: AutoCAD Mechanical|Company: Autodesk"
 90
        0
 91
        1
280
     0
281
     0
  0
CLASS
  1
ACMFCFSTANDARDBSI
  2
AcmFCFStdBSI
  3
"Amdt_StdImp|Product Description: AutoCAD Mechanical|Company: Autodesk"
 90
        0
 91
        1
280
     0
281
     0
  0
CLASS
  1
ACMWELDSTANDARDBSI
  2
AcmWeldingStdBSI
  3
"Amdt_StdImp|Product Description: AutoCAD Mechanical|Company: Autodesk"
 90
        0
 91
        1
280
     0
281
     0
  0
CLASS
  1
ACMIDSTANDARDBSI
  2
AcmIdStdBSI
  3
"Amdt_StdImp|Product Description: AutoCAD Mechanical|Company: Autodesk"
 90
        0
 91
        1
280
     0
281
     0
  0
CLASS
  1
ACMDATUMSTANDARDBSI
  2
AcmDatumStdBSI
  3
"Amdt_StdImp|Product Description: AutoCAD Mechanical|Company: Autodesk"
 90
        0
 91
        1
280
     0
281
     0
  0
CLASS
  1
ACMBOMSTANDARDBSI
  2
AcmBOMStdBSI
  3
"Amdt_StdImp|Product Description: AutoCAD Mechanical|Company: Autodesk"
 90
        0
 91
        1
280
     0
281
     0
  0
CLASS
  1
AMDTEDGESTANDARDDIN
  2
AmdtEdgeStdDIN
  3
"Amdt_StdImp|Product Description: AutoCAD Mechanical|Company: Autodesk"
 90
        0
 91
        1
280
     0
281
     0
  0
CLASS
  1
ACMSURFSTANDARDDIN
  2
AcmSurfTextStdDIN
  3
"Amdt_StdImp|Product Description: AutoCAD Mechanical|Company: Autodesk"
 90
        0
 91
        1
280
     0
281
     0
  0
CLASS
  1
ACMFCFSTANDARDDIN
  2
AcmFCFStdDIN
  3
"Amdt_StdImp|Product Description: AutoCAD Mechanical|Company: Autodesk"
 90
        0
 91
        1
280
     0
281
     0
  0
CLASS
  1
ACMWELDSTANDARDDIN
  2
AcmWeldingStdDIN
  3
"Amdt_StdImp|Product Description: AutoCAD Mechanical|Company: Autodesk"
 90
        0
 91
        1
280
     0
281
     0
  0
CLASS
  1
ACMIDSTANDARDDIN
  2
AcmIdStdDIN
  3
"Amdt_StdImp|Product Description: AutoCAD Mechanical|Company: Autodesk"
 90
        0
 91
        1
280
     0
281
     0
  0
CLASS
  1
ACMDATUMSTANDARDDIN
  2
AcmDatumStdDIN
  3
"Amdt_StdImp|Product Description: AutoCAD Mechanical|Company: Autodesk"
 90
        0
 91
        1
280
     0
281
     0
  0
CLASS
  1
ACMBOMSTANDARDDIN
  2
AcmBOMStdDIN
  3
"Amdt_StdImp|Product Description: AutoCAD Mechanical|Company: Autodesk"
 90
        0
 91
        1
280
     0
281
     0
  0
CLASS
  1
ACMSURFSTANDARDISO
  2
AcmSurfTextStdISO
  3
"Amdt_StdImp|Product Description: AutoCAD Mechanical|Company: Autodesk"
 90
        0
 91
        1
280
     0
281
     0
  0
CLASS
  1
ACMFCFSTANDARDISO
  2
AcmFCFStdISO
  3
"Amdt_StdImp|Product Description: AutoCAD Mechanical|Company: Autodesk"
 90
        0
 91
        1
280
     0
281
     0
  0
CLASS
  1
ACMWELDSTANDARDISO
  2
AcmWeldingStdISO
  3
"Amdt_StdImp|Product Description: AutoCAD Mechanical|Company: Autodesk"
 90
        0
 91
        1
280
     0
281
     0
  0
CLASS
  1
ACMIDSTANDARDISO
  2
AcmIdStdISO
  3
"Amdt_StdImp|Product Description: AutoCAD Mechanical|Company: Autodesk"
 90
        0
 91
        1
280
     0
281
     0
  0
CLASS
  1
ACMDATUMSTANDARDISO
  2
AcmDatumStdISO
  3
"Amdt_StdImp|Product Description: AutoCAD Mechanical|Company: Autodesk"
 90
        0
 91
        1
280
     0
281
     0
  0
CLASS
  1
ACMBOMSTANDARDISO
  2
AcmBOMStdISO
  3
"Amdt_StdImp|Product Description: AutoCAD Mechanical|Company: Autodesk"
 90
        0
 91
        1
280
     0
281
     0
  0
CLASS
  1
AMDTBROWSERDBTAB
  2
AmdtBrowserDbTab
  3
McadcomServices
 90
        0
 91
        1
280
     0
281
     0
  0
CLASS
  1
ACAMGFILTERDAT
  2
AcAmgFilterDat
  3
"AcadM|Product Description: AutoCAD Mechanical|Company: Autodesk"
 90
        0
 91
        4
280
     0
281
     0
  0
CLASS
  1
MAPIAMMOUDLE
  2
MApiAmModule
  3
MApiAmServices
 90
        0
 91
        1
280
     0
281
     0
  0
CLASS
  1
PLOTSETTINGS
  2
AcDbPlotSettings
  3
ObjectDBX Classes
 90
        0
 91
        7
280
     0
281
     0
  0
CLASS
  1
ACRFATTGENMGR
  2
AcRfAttGeneralMgr
  3
AcAttribServices
 90
        0
 91
        1
280
     0
281
     0
  0
CLASS
  1
ACAMGRBLOCKRECORD
  2
AcAmGrBlockRecord
  3
DesignerAssemblies
 90
        0
 91
        2
280
     0
281
     0
  0
CLASS
  1
ACAMVIEWREACTOR
  2
AcAmViewReactor
  3
DesignerAssemblies
 90
        0
 91
        0
280
     0
281
     0
  0
CLASS
  1
ACAMCOMPENT
  2
AcAmCompEnt
  3
DesignerAssemblies
 90
        0
 91
        0
280
     0
281
     1
  0
CLASS
  1
AMVIEW
  2
AcAmView
  3
DesignerAssemblies
 90
        0
 91
        0
280
     0
281
     0
  0
CLASS
  1
ACAMVIEWCONTEXT
  2
AcAmViewContext
  3
DesignerAssemblies
 90
        0
 91
        0
280
     0
281
     0
  0
CLASS
  1
ADPART
  2
AcAdPart
  3
DesignerServices
 90
        0
 91
        2
280
     0
281
     1
  0
CLASS
  1
ADBASE
  2
AcAdBase
  3
DesignerServices
 90
        0
 91
        2
280
     0
281
     0
  0
CLASS
  1
BODYID
  2
AcAdBodyId
  3
DesignerServices
 90
        0
 91
        2
280
     0
281
     0
  0
CLASS
  1
WORKPLANEDISPLAYMGR
  2
AcAdDisplayMgr
  3
DesignerServices
 90
        0
 91
        2
280
     0
281
     0
  0
CLASS
  1
ACCMBODY
  2
AcCmBody
  3
DesignerAssemblies
 90
        0
 91
        0
280
     0
281
     0
  0
CLASS
  1
ACAMCOMPFEEDBACK
  2
AcAmCompFeedback
  3
DesignerAssemblies
 90
        0
 91
        0
280
     0
281
     0
  0
CLASS
  1
ACAMCOMP
  2
AcAmComp
  3
DesignerAssemblies
 90
        0
 91
        0
280
     0
281
     0
  0
CLASS
  1
ACAMCOMPENTCLONE
  2
AcAmCompEntClone
  3
DesignerAssemblies
 90
        0
 91
        0
280
     0
281
     1
  0
CLASS
  1
ACAMCLONEREACTOR
  2
AcAmGrCompCloneReactor
  3
DesignerAssemblies
 90
        0
 91
        0
280
     0
281
     0
  0
CLASS
  1
ADDATUMPLANEABS
  2
AcAdDatumPlaneAbs
  3
DesignerServices
 90
        0
 91
        5
280
     0
281
     0
  0
CLASS
  1
ADDATUMAXISABS
  2
AcAdDatumAxisAbs
  3
DesignerServices
 90
        0
 91
        6
280
     0
281
     0
  0
CLASS
  1
ADDATUMORIENTEDPLANE
  2
AcAdDatumOrientedPlane
  3
DesignerServices
 90
        0
 91
        6
280
     0
281
     0
  0
CLASS
  1
ACAD_LINE
  2
AcAdLine
  3
DesignerServices
 90
        0
 91
        0
280
     0
281
     1
  0
CLASS
  1
ACADLINEACAD
  2
AcAdVirtualBoundedLineAcad
  3
DesignerServices
 90
        0
 91
       12
280
     0
281
     0
  0
CLASS
  1
ACADREFLINEACAD
  2
AcAdVirtualReferenceLine
  3
DesignerServices
 90
        0
 91
        8
280
     0
281
     0
  0
CLASS
  1
ACADCONSLINE
  2
AcAdConstrainedLine
  3
DesignerServices
 90
        0
 91
       21
280
     0
281
     0
  0
CLASS
  1
ACADCONSGROUP
  2
AcAdConstraintGroup
  3
DesignerServices
 90
        0
 91
        4
280
     0
281
     0
  0
CLASS
  1
ACADIMPPTACAD
  2
AcAdVirtualImplicitPoint
  3
DesignerServices
 90
        0
 91
       25
280
     0
281
     0
  0
CLASS
  1
ACADCONSPOINT
  2
AcAdConstrainedPoint
  3
DesignerServices
 90
        0
 91
       20
280
     0
281
     0
  0
CLASS
  1
ADPCURCNS
  2
AcAdPointCurveConstr
  3
DesignerServices
 90
        0
 91
       24
280
     0
281
     0
  0
CLASS
  1
ADHORCNS
  2
AcAdHorizontalConstr
  3
DesignerServices
 90
        0
 91
        4
280
     0
281
     0
  0
CLASS
  1
ADVERCNS
  2
AcAdVerticalConstr
  3
DesignerServices
 90
        0
 91
        4
280
     0
281
     0
  0
CLASS
  1
ADCLPROF2D
  2
AcAdClosedProfile2d
  3
DesignerServices
 90
        0
 91
        3
280
     0
281
     0
  0
CLASS
  1
ACAD_FIXCONSTRAINT
  2
AcAdFixedConstraint
  3
DesignerServices
 90
        0
 91
        1
280
     0
281
     0
  0
CLASS
  1
ACMELINEARARROW
  2
AcImLinearArrowDisplay
  3
AcMeServices
 90
        0
 91
        0
280
     0
281
     1
  0
CLASS
  1
PARAM
  2
AcAdParam
  3
DesignerServices
 90
        0
 91
       23
280
     0
281
     0
  0
CLASS
  1
ACADVOLFEATWITHTRIM
  2
AcAdVolFeatWithTrim
  3
DesignerServices
 90
        0
 91
        3
280
     0
281
     0
  0
CLASS
  1
DEPEDGEFEATUREORDERING
  2
AcAdDepEdgeFeatureOrdering
  3
DesignerServices
 90
        0
 91
        3
280
     0
281
     0
  0
CLASS
  1
ADWORKPOINTDISPLAY
  2
AcAdWorkPointDisplay
  3
DesignerServices
 90
        0
 91
        1
280
     0
281
     1
  0
CLASS
  1
ADVIRTUALPOINTWORKPOINTFREE
  2
AcAdVirtualPointWorkPointFree
  3
DesignerServices
 90
        0
 91
        1
280
     0
281
     0
  0
CLASS
  1
ADWORKPOINTSKETCH
  2
AcAdWorkPointSketch
  3
DesignerServices
 90
        0
 91
        1
280
     0
281
     0
  0
CLASS
  1
ACADPARTDATUMPOINTRES
  2
AcAdPartDatumPointRes
  3
AdGrefServices
 90
        0
 91
        0
280
     0
281
     0
  0
CLASS
  1
ACRFINSADJ
  2
AcRfInsAdjuster
  3
AcMeServices
 90
        0
 91
        0
280
     0
281
     0
  0
CLASS
  1
DATUMPLANEDISPLAY
  2
AcAdDatumPlaneDisplay
  3
DesignerServices
 90
        0
 91
        5
280
     0
281
     1
  0
CLASS
  1
ACADPARTDATUMPLANERES
  2
AcAdPartDatumPlaneRes
  3
AdGrefServices
 90
        0
 91
        0
280
     0
281
     0
  0
CLASS
  1
ACMEPLINE
  2
AcImPlineDisplay
  3
AcMeServices
 90
        0
 91
        0
280
     0
281
     1
  0
CLASS
  1
ACAD_CIRCLE
  2
AcAdCircle
  3
DesignerServices
 90
        0
 91
        0
280
     0
281
     1
  0
CLASS
  1
ACADCIRCLEACAD
  2
AcAdVirtualCircleAcad
  3
DesignerServices
 90
        0
 91
        1
280
     0
281
     0
  0
CLASS
  1
ACADCONSCIRCLE
  2
AcAdConstrainedCircle
  3
DesignerServices
 90
        0
 91
        1
280
     0
281
     0
  0
CLASS
  1
ADCTRPTCNS
  2
AcAdCenterPointConstr
  3
DesignerServices
 90
        0
 91
        1
280
     0
281
     0
  0
CLASS
  1
ACDBCIRCARCRES
  2
AcDbCircArcRes
  3
AcGrefServices
 90
        0
 91
        0
280
     0
281
     0
  0
CLASS
  1
ACADSKETCHCIRCARCRES
  2
AcAdSketchCircArcRes
  3
DesignerServices
 90
        0
 91
        1
280
     0
281
     0
  0
CLASS
  1
ADVIRTUALPOINTWORKPOINTFIXED
  2
AcAdVirtualPointWorkPointFixed
  3
DesignerServices
 90
        0
 91
        6
280
     0
281
     0
  0
CLASS
  1
ADHDISTCNS
  2
AcAdHorizontalDistanceConstr
  3
DesignerServices
 90
        0
 91
        5
280
     0
281
     0
  0
CLASS
  1
ACADSKETCHPOINTRES
  2
AcAdSketchPointRes
  3
DesignerServices
 90
        0
 91
       20
280
     0
281
     0
  0
CLASS
  1
ADVDISTCNS
  2
AcAdVerticalDistanceConstr
  3
DesignerServices
 90
        0
 91
        7
280
     0
281
     0
  0
CLASS
  1
ADACADDIACNS
  2
AcAdAcadDiameterConstr
  3
DesignerServices
 90
        0
 91
        1
280
     0
281
     0
  0
CLASS
  1
AMIINSTATTCLASSRECORD
  2
AmiInstAttClassRecord
  3
AcAttribServices
 90
        0
 91
        1
280
     0
281
     0
  0
CLASS
  1
AMIINSTATTIMP
  2
AmiInstAttImp
  3
AcAttribServices
 90
        1
 91
        2
280
     0
281
     0
  0
CLASS
  1
ACRFOBJATTMGR
  2
AcRfObjAttGroupMgr
  3
AcAttribServices
 90
        0
 91
        2
280
     0
281
     0
  0
CLASS
  1
ACRFMCADAPIATTHOLDER
  2
AcRfMCADAPIAttHolder
  3
AcAttribServices
 90
        0
 91
        1
280
     0
281
     0
  0
CLASS
  1
FACEID
  2
AcAdFaceId
  3
DesignerServices
 90
        0
 91
        0
280
     0
281
     0
  0
CLASS
  1
ACADPARTCYLINDERFACERES
  2
AcAdPartCylinderFaceRes
  3
AdGrefServices
 90
        0
 91
        0
280
     0
281
     0
  0
CLASS
  1
ACADPARTPLANARFACERES
  2
AcAdPartPlanarFaceRes
  3
AdGrefServices
 90
        0
 91
        0
280
     0
281
     0
  0
CLASS
  1
ADPLANEID
  2
AcAdPlaneId
  3
DesignerServices
 90
        0
 91
        2
280
     0
281
     0
  0
CLASS
  1
ADDATUMPLANEFACE
  2
AcAdDatumPlaneFace
  3
DesignerServices
 90
        0
 91
        2
280
     0
281
     0
  0
CLASS
  1
ADDATUMPLANEOFFSET
  2
AcAdDatumPlaneOffset
  3
DesignerServices
 90
        0
 91
        3
280
     0
281
     0
  0
CLASS
  1
DATUMAXISDISPLAY
  2
AcAdDatumAxisDisplay
  3
DesignerServices
 90
        0
 91
        1
280
     0
281
     1
  0
CLASS
  1
ADSURFGEOMID
  2
AcAdSurfGeomId
  3
DesignerServices
 90
        0
 91
        1
280
     0
281
     0
  0
CLASS
  1
ADDATUMAXISCENTER
  2
AcAdDatumAxisCenter
  3
DesignerServices
 90
        0
 91
        1
280
     0
281
     0
  0
CLASS
  1
ACADPARTAXISRES
  2
AcAdPartAxisRes
  3
AdGrefServices
 90
        0
 91
        0
280
     0
281
     0
  0
CLASS
  1
ACDBLINERES
  2
AcDbLineRes
  3
AcGrefServices
 90
        0
 91
        0
280
     0
281
     0
  0
CLASS
  1
ACADSKETCHLINERES
  2
AcAdSketchLineRes
  3
DesignerServices
 90
        0
 91
        4
280
     0
281
     0
  0
CLASS
  1
ADCONSTDSP
  2
AcAdConstraintDisplayTag
  3
DesignerServices
 90
        0
 91
        0
280
     0
281
     1
  0
CLASS
  1
ADCONSDISP
  2
AcAdConstraintDisplay
  3
DesignerServices
 90
        0
 91
        0
280
     0
281
     1
  0
CLASS
  1
ADACADANGCNS
  2
AcAdAcadAngleConstr
  3
DesignerServices
 90
        0
 91
        2
280
     0
281
     0
  0
CLASS
  1
ADPROJCNS
  2
AcAdProjectionConstr
  3
DesignerServices
 90
        0
 91
        1
280
     0
281
     0
  0
CLASS
  1
ADCOLNCNS
  2
AcAdColinearConstr
  3
DesignerServices
 90
        0
 91
        1
280
     0
281
     0
  0
CLASS
  1
ACADBOUNDEDLINEDATUMID
  2
AcAdVirtualBoundedLineDatumId
  3
DesignerServices
 90
        0
 91
        1
280
     0
281
     0
  0
CLASS
  1
ACADPARTCONICALFACERES
  2
AcAdPartConicalFaceRes
  3
AdGrefServices
 90
        0
 91
        0
280
     0
281
     0
  0
CLASS
  1
DEPEDGESECONDARYDEPID
  2
AcAdDepEdgeSecondaryDepId
  3
DesignerServices
 90
        0
 91
        0
280
     0
281
     0
  0
CLASS
  1
AMACTIVEPARTSELECTFILTER
  2
AcDmActivePartViewEntFilter
  3
DesignerServices
 90
        0
 91
        0
280
     0
281
     0
  0
CLASS
  1
AM_ABS_PLANE
  2
AcDmAbsPlnDef
  3
AcMechDwgViewMgmt
 90
        0
 91
        0
280
     0
281
     0
  0
CLASS
  1
AM_ABS_AXIS
  2
AcDmAbsAxisDef
  3
AcMechDwgViewMgmt
 90
        0
 91
        0
280
     0
281
     0
  0
CLASS
  1
AM_BASE_VIEW_ORIENT
  2
AcDmBaseViewOr
  3
AcMechDwgViewMgmt
 90
        0
 91
        0
280
     0
281
     0
  0
CLASS
  1
AM_DWG_VIEWPORT
  2
AcDmViewport
  3
AcMechDwgViewMgmt
 90
        0
 91
        0
280
     0
281
     0
  0
CLASS
  1
AM_VIEW_DISPLAY
  2
AcDmDwgViewDisplay
  3
AcMechDwgViewMgmt
 90
        0
 91
        0
280
     0
281
     0
  0
CLASS
  1
AM_CLDFLTS
  2
AcDmClDflts
  3
AcMechDwgViewMgmt
 90
        0
 91
        9
280
     0
281
     0
  0
CLASS
  1
AM_BASE_VIEW
  2
AcDmBaseView
  3
AcMechDwgViewMgmt
 90
        0
 91
        0
280
     0
281
     0
  0
CLASS
  1
AM_ORTHO_VIEW_ORIENT
  2
AcDmOrthoViewOr
  3
AcMechDwgViewMgmt
 90
        0
 91
        0
280
     0
281
     0
  0
CLASS
  1
AM_ORTHO_VIEW
  2
AcDmOrthoView
  3
AcMechDwgViewMgmt
 90
        0
 91
        0
280
     0
281
     0
  0
CLASS
  1
AM_ISO_VIEW_ORIENT
  2
AcDmIsoViewOr
  3
AcMechDwgViewMgmt
 90
        0
 91
        0
280
     0
281
     0
  0
CLASS
  1
AM_ISO_VIEW
  2
AcDmIsoView
  3
AcMechDwgViewMgmt
 90
        0
 91
        0
280
     0
281
     0
  0
CLASS
  1
ACDMVWEDARC
  2
AcDmViewEdgeArc
  3
AcMechDwgViewMgmt
 90
        0
 91
        0
280
     0
281
     1
  0
CLASS
  1
ACDMVWEDCIRC
  2
AcDmViewEdgeCircle
  3
AcMechDwgViewMgmt
 90
        0
 91
        0
280
     0
281
     1
  0
CLASS
  1
ACDMVWEDLINE
  2
AcDmViewEdgeLine
  3
AcMechDwgViewMgmt
 90
        0
 91
        0
280
     0
281
     1
  0
CLASS
  1
CNRREFID
  2
AcAdCornerId
  3
DesignerServices
 90
        0
 91
        0
280
     0
281
     0
  0
CLASS
  1
ACADPARTPOINTRES
  2
AcAdPartPointRes
  3
AdGrefServices
 90
        0
 91
        0
280
     0
281
     0
  0
CLASS
  1
ACADPARTSKETCHPLANEAXISRES
  2
AcAdPartSketchPlaneAxisRes
  3
DesignerServices
 90
        0
 91
        0
280
     0
281
     0
  0
CLASS
  1
AM_VIEWDIMPARALLEL
  2
AcDmViewDimParallel
  3
AcMechDwgViewMgmt
 90
        0
 91
        0
280
     0
281
     0
  0
CLASS
  1
AMDTDMPARMAPDATA
  2
AmdtDmDimParMapData
  3
AcMechDwgViewMgmt
 90
        0
 91
        0
280
     0
281
     0
  0
CLASS
  1
AM_VIEWDIMLINEAR
  2
AcDmViewDimLinear
  3
AcMechDwgViewMgmt
 90
        0
 91
        0
280
     0
281
     0
  0
CLASS
  1
AM_VIEWDIMANGULAR
  2
AcDmViewDimAngular
  3
AcMechDwgViewMgmt
 90
        0
 91
        0
280
     0
281
     0
  0
CLASS
  1
AM_ADLINCTRLINE
  2
AcAdLineCl
  3
DesignerServices
 90
        0
 91
        0
280
     0
281
     0
  0
CLASS
  1
AM_VIEWDIMDIAMETER
  2
AcDmViewDimDiameter
  3
AcMechDwgViewMgmt
 90
        0
 91
        0
280
     0
281
     0
  0
CLASS
  1
AM_ADCIRCTRLINE
  2
AcAdBullsEyeCl
  3
DesignerServices
 90
        0
 91
        0
280
     0
281
     0
  0
CLASS
  1
AMDTMAPISURFMOUDULE
  2
AmdtMApiSurfModule
  3
MApiSurfServices
 90
        0
 91
        1
280
     0
281
     0
  0
CLASS
  1
ACAMGTITLESTD
  2
AcAmgTitleStd
  3
"AmgTitle|Product Description: AutoCAD Mechanical|Company: Autodesk"
 90
        0
 91
        5
280
     0
281
     0
  0
CLASS
  1
ACMDETAILSTANDARDJIS
  2
AmdtDetailSymStdJIS
  3
"Amdt_StdImp|Product Description: AutoCAD Mechanical|Company: Autodesk"
 90
        0
 91
        1
280
     0
281
     0
  0
CLASS
  1
ACMSECTIONSTANDARDJIS
  2
AmdtSectionSymStdJIS
  3
"Amdt_StdImp|Product Description: AutoCAD Mechanical|Company: Autodesk"
 90
        0
 91
        1
280
     0
281
     0
  0
CLASS
  1
ACMCENTERLINESTANDARDJIS
  2
AmdtCenterLineStdJIS
  3
"Amdt_StdImp|Product Description: AutoCAD Mechanical|Company: Autodesk"
 90
        0
 91
        1
280
     0
281
     0
  0
CLASS
  1
ACMTHREADLINESTANDARDCSN
  2
AmdtThreadLineStdCSN
  3
"Amdt_StdImp|Product Description: AutoCAD Mechanical|Company: Autodesk"
 90
        0
 91
        5
280
     0
281
     0
  0
CLASS
  1
ACMDETAILSTANDARDANSI
  2
AmdtDetailSymStdANSI
  3
"Amdt_StdImp|Product Description: AutoCAD Mechanical|Company: Autodesk"
 90
        0
 91
        1
280
     0
281
     0
  0
CLASS
  1
ACMSECTIONSTANDARDANSI
  2
AmdtSectionSymStdANSI
  3
"Amdt_StdImp|Product Description: AutoCAD Mechanical|Company: Autodesk"
 90
        0
 91
        1
280
     0
281
     0
  0
CLASS
  1
ACMCENTERLINESTANDARDANSI
  2
AmdtCenterLineStdANSI
  3
"Amdt_StdImp|Product Description: AutoCAD Mechanical|Company: Autodesk"
 90
        0
 91
        1
280
     0
281
     0
  0
CLASS
  1
ACMDETAILSTANDARDBSI
  2
AmdtDetailSymStdBSI
  3
"Amdt_StdImp|Product Description: AutoCAD Mechanical|Company: Autodesk"
 90
        0
 91
        1
280
     0
281
     0
  0
CLASS
  1
ACMSECTIONSTANDARDBSI
  2
AmdtSectionSymStdBSI
  3
"Amdt_StdImp|Product Description: AutoCAD Mechanical|Company: Autodesk"
 90
        0
 91
        1
280
     0
281
     0
  0
CLASS
  1
ACMCENTERLINESTANDARDBSI
  2
AmdtCenterLineStdBSI
  3
"Amdt_StdImp|Product Description: AutoCAD Mechanical|Company: Autodesk"
 90
        0
 91
        1
280
     0
281
     0
  0
CLASS
  1
ACMDETAILSTANDARDDIN
  2
AmdtDetailSymStdDIN
  3
"Amdt_StdImp|Product Description: AutoCAD Mechanical|Company: Autodesk"
 90
        0
 91
        1
280
     0
281
     0
  0
CLASS
  1
ACMSECTIONSTANDARDDIN
  2
AmdtSectionSymStdDIN
  3
"Amdt_StdImp|Product Description: AutoCAD Mechanical|Company: Autodesk"
 90
        0
 91
        1
280
     0
281
     0
  0
CLASS
  1
ACMCENTERLINESTANDARDDIN
  2
AmdtCenterLineStdDIN
  3
"Amdt_StdImp|Product Description: AutoCAD Mechanical|Company: Autodesk"
 90
        0
 91
        1
280
     0
281
     0
  0
CLASS
  1
AMDTEDGESTANDARDISO
  2
AmdtEdgeStdISO
  3
"Amdt_StdImp|Product Description: AutoCAD Mechanical|Company: Autodesk"
 90
        0
 91
        1
280
     0
281
     0
  0
CLASS
  1
ACMDETAILSTANDARDISO
  2
AmdtDetailSymStdISO
  3
"Amdt_StdImp|Product Description: AutoCAD Mechanical|Company: Autodesk"
 90
        0
 91
        1
280
     0
281
     0
  0
CLASS
  1
ACMSECTIONSTANDARDISO
  2
AmdtSectionSymStdISO
  3
"Amdt_StdImp|Product Description: AutoCAD Mechanical|Company: Autodesk"
 90
        0
 91
        1
280
     0
281
     0
  0
CLASS
  1
ACMCENTERLINESTANDARDISO
  2
AmdtCenterLineStdISO
  3
"Amdt_StdImp|Product Description: AutoCAD Mechanical|Company: Autodesk"
 90
        0
 91
        1
280
     0
281
     0
  0
CLASS
  1
ACAMGLAYSTD
  2
AcAmgLayStd
  3
"AmgLay|Product Description: AutoCAD Mechanical|Company: Autodesk"
 90
        0
 91
        5
280
     0
281
     0
  0
CLASS
  1
ACAMGDIMSTD
  2
AcAmgDimStd
  3
"AmgDim|Product Description: AutoCAD Mechanical|Company: Autodesk"
 90
        0
 91
        5
280
     0
281
     0
  0
CLASS
  1
ACDMPARTVIEWDATA
  2
AcDmPartViewData
  3
AcMechDwgViewMgmt
 90
        0
 91
        0
280
     0
281
     0
  0
CLASS
  1
ACDMDISPLAYATTRIBS
  2
AcDmDisplayAttribs
  3
AcMechDwgViewMgmt
 90
        0
 91
        0
280
     0
281
     0
  0
CLASS
  1
ACDMBODYINSTANCEDATA
  2
AcDmBodyInstanceData
  3
AcMechDwgViewMgmt
 90
        0
 91
        0
280
     0
281
     0
  0
CLASS
  1
AMDTFORMULAUPDATEDISPATCHER
  2
AmdtFormulaUpdateDispatcher
  3
AcMeServices
 90
        0
 91
        1
280
     0
281
     0
  0
CLASS
  1
ACAMCONTEXTPARTMODELER
  2
AcAmContextPartModeler
  3
DesignerAssemblies
 90
        0
 91
        1
280
     0
281
     0
  0
CLASS
  1
ACMNOTESTANDARDJIS
  2
AmdtNoteStdJIS
  3
"Amdt_StdImp|Product Description: AutoCAD Mechanical|Company: Autodesk"
 90
        0
 91
        1
280
     0
281
     0
  0
CLASS
  1
AMDTNOTETEMPLATEDB
  2
AmdtNoteTemplateDB
  3
AMDT_STDIMP_MODULE_NAME
 90
        0
 91
       20
280
     0
281
     0
  0
CLASS
  1
ACMNOTESTANDARDANSI
  2
AmdtNoteStdANSI
  3
"Amdt_StdImp|Product Description: AutoCAD Mechanical|Company: Autodesk"
 90
        0
 91
        1
280
     0
281
     0
  0
CLASS
  1
ACMNOTESTANDARDBSI
  2
AmdtNoteStdBSI
  3
"Amdt_StdImp|Product Description: AutoCAD Mechanical|Company: Autodesk"
 90
        0
 91
        1
280
     0
281
     0
  0
CLASS
  1
ACMNOTESTANDARDDIN
  2
AmdtNoteStdDIN
  3
"Amdt_StdImp|Product Description: AutoCAD Mechanical|Company: Autodesk"
 90
        0
 91
        1
280
     0
281
     0
  0
CLASS
  1
ACMNOTESTANDARDISO
  2
AmdtNoteStdISO
  3
"Amdt_StdImp|Product Description: AutoCAD Mechanical|Company: Autodesk"
 90
        0
 91
        1
280
     0
281
     0
  0
CLASS
  1
MATERIAL
  2
AcDbMaterial
  3
ObjectDBX Classes
 90
     1024
 91
        3
280
     0
281
     0
  0
CLASS
  1
VISUALSTYLE
  2
AcDbVisualStyle
  3
ObjectDBX Classes
 90
     4095
 91
       16
280
     0
281
     0
  0
CLASS
  1
TABLESTYLE
  2
AcDbTableStyle
  3
ObjectDBX Classes
 90
     4095
 91
        1
280
     0
281
     0
  0
CLASS
  1
ACMTAPERSTANDARDJIS
  2
AcmTaperStdJIS
  3
"Amdt_StdImp|Product Description: AutoCAD Mechanical|Company: Autodesk"
 90
        0
 91
        1
280
     0
281
     0
  0
CLASS
  1
ACMTAPERSTANDARDANSI
  2
AcmTaperStdANSI
  3
"Amdt_StdImp|Product Description: AutoCAD Mechanical|Company: Autodesk"
 90
        0
 91
        1
280
     0
281
     0
  0
CLASS
  1
ACMTAPERSTANDARDBSI
  2
AcmTaperStdBSI
  3
"Amdt_StdImp|Product Description: AutoCAD Mechanical|Company: Autodesk"
 90
        0
 91
        1
280
     0
281
     0
  0
CLASS
  1
ACMTAPERSTANDARDDIN
  2
AcmTaperStdDIN
  3
"Amdt_StdImp|Product Description: AutoCAD Mechanical|Company: Autodesk"
 90
        0
 91
        1
280
     0
281
     0
  0
CLASS
  1
ACMTAPERSTANDARDISO
  2
AcmTaperStdISO
  3
"Amdt_StdImp|Product Description: AutoCAD Mechanical|Company: Autodesk"
 90
        0
 91
        1
280
     0
281
     0
  0
ENDSEC
  0
SECTION
  2
TABLES
  0
TABLE
  2
VPORT
  5
8
330
0
100
AcDbSymbolTable
 70
     3
  0
VPORT
  5
79C
330
8
100
AcDbSymbolTableRecord
100
AcDbViewportTableRecord
  2
asurf_wcs_vp_2
 70
     0
 10
0.0
 20
0.0
 11
0.5
 21
1.0
 12
0.0
 22
0.0
 13
0.0
 23
0.0
 14
10.0
 24
10.0
 15
10.0
 25
10.0
 16
0.0
 26
0.0
 36
1.0
 17
210.0
 27
148.5
 37
0.0
 40
664.2413317557894
 41
0.6397245798091085
 42
50.0
 43
0.0
 44
0.0
 50
0.0
 51
0.0
 71
     0
 72
  1000
 73
     1
 74
     0
 75
     0
 76
     0
 77
     0
 78
     0
281
     4
 65
     0
110
0.0
120
0.0
130
0.0
111
1.0
121
0.0
131
0.0
112
0.0
122
1.0
132
0.0
 79
     0
146
0.0
348
239C
 60
     3
 61
     5
292
     1
282
     1
141
0.0
142
0.0
 63
   250
421
  3355443
  0
VPORT
  5
79D
330
8
100
AcDbSymbolTableRecord
100
AcDbViewportTableRecord
  2
asurf_wcs_vp_2
 70
     0
 10
0.5
 20
0.0
 11
1.0
 21
1.0
 12
-166.0188166206583
 22
35.22481755965711
 13
0.0
 23
0.0
 14
10.0
 24
10.0
 15
10.0
 25
10.0
 16
1.0
 26
-1.0
 36
1.0
 17
210.0
 27
148.5
 37
0.0
 40
482.8380307317477
 41
0.6397245798091085
 42
50.0
 43
0.0
 44
0.0
 50
0.0
 51
0.0
 71
     0
 72
  1000
 73
     1
 74
     0
 75
     0
 76
     0
 77
     0
 78
     0
281
     4
 65
     0
110
0.0
120
0.0
130
0.0
111
1.0
121
0.0
131
0.0
112
0.0
122
1.0
132
0.0
 79
     0
146
0.0
348
239C
 60
     3
 61
     5
292
     1
282
     1
141
0.0
142
0.0
 63
   250
421
  3355443
  0
VPORT
  5
2394
330
8
100
AcDbSymbolTableRecord
100
AcDbViewportTableRecord
  2
*Active
 70
     0
 10
0.0
 20
0.0
 11
1.0
 21
1.0
 12
57.0484870977512
 22
-4.152151122941575
 13
0.0
 23
0.0
 14
10.0
 24
10.0
 15
10.0
 25
10.0
 16
0.0
 26
0.0
 36
1.0
 17
225.0419189867749
 27
164.8409058003548
 37
0.0
 40
308.2708330617866
 41
1.622039134912461
 42
50.0
 43
0.0
 44
0.0
 50
0.0
 51
0.0
 71
     0
 72
  1000
 73
     1
 74
     1
 75
     0
 76
     0
 77
     0
 78
     0
281
     0
 65
     0
110
0.0
120
0.0
130
0.0
111
1.0
121
0.0
131
0.0
112
0.0
122
1.0
132
0.0
 79
     0
146
0.0
348
239F
 60
     3
 61
     5
292
     1
282
     1
141
0.0
142
0.0
 63
   250
421
  3355443
  0
ENDTAB
  0
TABLE
  2
LTYPE
  5
5
330
0
100
AcDbSymbolTable
 70
    34
  0
LTYPE
  5
14
330
5
100
AcDbSymbolTableRecord
100
AcDbLinetypeTableRecord
  2
BYBLOCK
 70
     0
  3

 72
    65
 73
     0
 40
0.0
  0
LTYPE
  5
15
330
5
100
AcDbSymbolTableRecord
100
AcDbLinetypeTableRecord
  2
BYLAYER
 70
     0
  3

 72
    65
 73
     0
 40
0.0
  0
LTYPE
  5
16
330
5
100
AcDbSymbolTableRecord
100
AcDbLinetypeTableRecord
  2
CONTINUOUS
 70
     0
  3
Solid line
 72
    65
 73
     0
 40
0.0
  0
LTYPE
  5
BD
330
5
100
AcDbSymbolTableRecord
100
AcDbLinetypeTableRecord
  2
HIDDEN
 70
     0
  3
__ __ __ __ __ __ __ __ __ __ __ __ __ __ __ __
 72
    65
 73
     2
 40
0.375
 49
0.25
 74
     0
 49
-0.125
 74
     0
  0
LTYPE
  5
BF
330
5
100
AcDbSymbolTableRecord
100
AcDbLinetypeTableRecord
  2
PHANTOM2
 70
     0
  3
___ _ _ ___ _ _ ___ _ _ ___ _ _ ___ _ _ ___ _ _
 72
    65
 73
     6
 40
1.25
 49
0.625
 74
     0
 49
-0.125
 74
     0
 49
0.125
 74
     0
 49
-0.125
 74
     0
 49
0.125
 74
     0
 49
-0.125
 74
     0
  0
LTYPE
  5
CA
330
5
100
AcDbSymbolTableRecord
100
AcDbLinetypeTableRecord
  2
CENTER
 70
     0
  3
____ _ ____ _ ____ _ ____ _ ____ _ ____ _ ____ 
 72
    65
 73
     4
 40
2.0
 49
1.25
 74
     0
 49
-0.25
 74
     0
 49
0.25
 74
     0
 49
-0.25
 74
     0
  0
LTYPE
  5
120
330
5
100
AcDbSymbolTableRecord
100
AcDbLinetypeTableRecord
  2
ASULTYPE
 70
     0
  3
Solid line
 72
    65
 73
     2
 40
3.0
 49
2.5
 74
     0
 49
0.5
 74
     0
  0
LTYPE
  5
121
330
5
100
AcDbSymbolTableRecord
100
AcDbLinetypeTableRecord
  2
ASVLTYPE
 70
     0
  3
__ __ __ __ __ __ __ __ __ __ __ __ __ __ __ __ __ __ __ __ __
 72
    65
 73
     2
 40
0.75
 49
0.5
 74
     0
 49
-0.25
 74
     0
  0
LTYPE
  5
149
330
5
100
AcDbSymbolTableRecord
100
AcDbLinetypeTableRecord
  2
ACJISTGB
 70
     0
  3
__ . . __ . .
 72
    65
 73
     6
 40
9.0
 49
4.0
 74
     0
 49
-1.0
 74
     0
 49
1.0
 74
     0
 49
-1.0
 74
     0
 49
1.0
 74
     0
 49
-1.0
 74
     0
  0
LTYPE
  5
14A
330
5
100
AcDbSymbolTableRecord
100
AcDbLinetypeTableRecord
  2
ACJISTGL
 70
     0
  3
_ _ _ _ _
 72
    65
 73
     2
 40
3.0
 49
2.0
 74
     0
 49
-1.0
 74
     0
  0
LTYPE
  5
14D
330
5
100
AcDbSymbolTableRecord
100
AcDbLinetypeTableRecord
  2
ACANSTGB
 70
     0
  3
__ . . __ . .
 72
    65
 73
     6
 40
0.35433070866
 49
0.15748031496
 74
     0
 49
-0.03937007874
 74
     0
 49
0.03937007874
 74
     0
 49
-0.03937007874
 74
     0
 49
0.03937007874
 74
     0
 49
-0.03937007874
 74
     0
  0
LTYPE
  5
14E
330
5
100
AcDbSymbolTableRecord
100
AcDbLinetypeTableRecord
  2
ACANSTGL
 70
     0
  3
_ _ _ _ _
 72
    65
 73
     2
 40
0.11811023622
 49
0.07874015748
 74
     0
 49
-0.03937007874
 74
     0
  0
LTYPE
  5
151
330
5
100
AcDbSymbolTableRecord
100
AcDbLinetypeTableRecord
  2
ACBSWELD
 70
     0
  3
_ _ _ _ _
 72
    65
 73
     2
 40
2.0
 49
2.0
 74
     0
 49
-1.0
 74
     0
  0
LTYPE
  5
152
330
5
100
AcDbSymbolTableRecord
100
AcDbLinetypeTableRecord
  2
ACBSITGB
 70
     0
  3
__ . . __ . .
 72
    65
 73
     6
 40
9.0
 49
4.0
 74
     0
 49
-1.0
 74
     0
 49
1.0
 74
     0
 49
-1.0
 74
     0
 49
1.0
 74
     0
 49
-1.0
 74
     0
  0
LTYPE
  5
153
330
5
100
AcDbSymbolTableRecord
100
AcDbLinetypeTableRecord
  2
ACBSITGL
 70
     0
  3
_ _ _ _ _
 72
    65
 73
     2
 40
3.0
 49
2.0
 74
     0
 49
-1.0
 74
     0
  0
LTYPE
  5
156
330
5
100
AcDbSymbolTableRecord
100
AcDbLinetypeTableRecord
  2
ACDINWELD
 70
     0
  3
_ _ _ _ _
 72
    65
 73
     2
 40
2.0
 49
2.0
 74
     0
 49
-1.0
 74
     0
  0
LTYPE
  5
157
330
5
100
AcDbSymbolTableRecord
100
AcDbLinetypeTableRecord
  2
ACDINTGB
 70
     0
  3
__ . . __ . .
 72
    65
 73
     6
 40
9.0
 49
4.0
 74
     0
 49
-1.0
 74
     0
 49
1.0
 74
     0
 49
-1.0
 74
     0
 49
1.0
 74
     0
 49
-1.0
 74
     0
  0
LTYPE
  5
158
330
5
100
AcDbSymbolTableRecord
100
AcDbLinetypeTableRecord
  2
ACDINTGL
 70
     0
  3
_ _ _ _ _
 72
    65
 73
     2
 40
3.0
 49
2.0
 74
     0
 49
-1.0
 74
     0
  0
LTYPE
  5
15B
330
5
100
AcDbSymbolTableRecord
100
AcDbLinetypeTableRecord
  2
ACISOWELD
 70
     0
  3
_ _ _ _ _
 72
    65
 73
     2
 40
2.0
 49
2.0
 74
     0
 49
-1.0
 74
     0
  0
LTYPE
  5
15C
330
5
100
AcDbSymbolTableRecord
100
AcDbLinetypeTableRecord
  2
ACISOTGB
 70
     0
  3
__ . . __ . .
 72
    65
 73
     6
 40
9.0
 49
4.0
 74
     0
 49
-1.0
 74
     0
 49
1.0
 74
     0
 49
-1.0
 74
     0
 49
1.0
 74
     0
 49
-1.0
 74
     0
  0
LTYPE
  5
15D
330
5
100
AcDbSymbolTableRecord
100
AcDbLinetypeTableRecord
  2
ACISOTGL
 70
     0
  3
_ _ _ _ _
 72
    65
 73
     2
 40
3.0
 49
2.0
 74
     0
 49
-1.0
 74
     0
  0
LTYPE
  5
175
330
5
100
AcDbSymbolTableRecord
100
AcDbLinetypeTableRecord
  2
AM_ISO02W050
 70
     0
  3
__ __ __ __ __ __ __ __ __ __ __ __ __ __ __
 72
    65
 73
     2
 40
7.5
 49
6.0
 74
     0
 49
-1.5
 74
     0
  0
LTYPE
  5
176
330
5
100
AcDbSymbolTableRecord
100
AcDbLinetypeTableRecord
  2
AM_ISO08W050
 70
     0
  3
____ . ____ . ____ . ____ . ____ . ____ . ____
 72
    65
 73
     4
 40
18.0
 49
12.0
 74
     0
 49
-1.5
 74
     0
 49
3.0
 74
     0
 49
-1.5
 74
     0
  0
LTYPE
  5
177
330
5
100
AcDbSymbolTableRecord
100
AcDbLinetypeTableRecord
  2
AM_ISO09W050
 70
     0
  3
_____ . . _____ . . _____ . . ____ .. ____
 72
    65
 73
     6
 40
22.5
 49
12.0
 74
     0
 49
-1.5
 74
     0
 49
3.0
 74
     0
 49
-1.5
 74
     0
 49
3.0
 74
     0
 49
-1.5
 74
     0
  0
LTYPE
  5
178
330
5
100
AcDbSymbolTableRecord
100
AcDbLinetypeTableRecord
  2
AM_ISO02W050x2
 70
     0
  3
 _ _ _ _ _ _ _ _ _ _ _ _
 72
    65
 73
     2
 40
3.75
 49
3.0
 74
     0
 49
-0.75
 74
     0
  0
LTYPE
  5
179
330
5
100
AcDbSymbolTableRecord
100
AcDbLinetypeTableRecord
  2
AM_ISO08W050x2
 70
     0
  3
__ . __ . __ . __ . __ . __
 72
    65
 73
     4
 40
9.0
 49
6.0
 74
     0
 49
-0.75
 74
     0
 49
1.5
 74
     0
 49
-0.75
 74
     0
  0
LTYPE
  5
17C
330
5
100
AcDbSymbolTableRecord
100
AcDbLinetypeTableRecord
  2
amzigzag
 70
     0
  3
/\/-/\/-/\/-/\/-/\/-/\/
 72
    65
 73
     2
 40
11.0001
 49
0.0001
 74
     4
 75
   135
340
17B
 46
0.04
 50
0.0
 44
0.0
 45
0.0
 49
-11.0
 74
     0
  0
LTYPE
  5
1814
330
5
100
AcDbSymbolTableRecord
100
AcDbLinetypeTableRecord
  2
ACANSTGBM
 70
     0
  3
__ . . __ . .
 72
    65
 73
     6
 40
9.0
 49
4.0
 74
     0
 49
-1.0
 74
     0
 49
1.0
 74
     0
 49
-1.0
 74
     0
 49
1.0
 74
     0
 49
-1.0
 74
     0
  0
LTYPE
  5
1815
330
5
100
AcDbSymbolTableRecord
100
AcDbLinetypeTableRecord
  2
ACANSTGLM
 70
     0
  3
_ _ _ _ _
 72
    65
 73
     2
 40
3.0
 49
2.0
 74
     0
 49
-1.0
 74
     0
  0
LTYPE
  5
1A25
330
5
100
AcDbSymbolTableRecord
100
AcDbLinetypeTableRecord
  2
GEN7
 70
     0
  3
____ . ____ . ____ . ____ . ___
 72
    65
 73
     4
 40
13.75
 49
9.75
 74
     0
 49
-1.5
 74
     0
 49
1.0
 74
     0
 49
-1.5
 74
     0
  0
LTYPE
  5
1A26
330
5
100
AcDbSymbolTableRecord
100
AcDbLinetypeTableRecord
  2
GEN3
 70
     0
  3
-- -- -- -- -- -- -- -- -- -- -
 72
    65
 73
     2
 40
6.25
 49
4.75
 74
     0
 49
-1.5
 74
     0
  0
LTYPE
  5
1A27
330
5
100
AcDbSymbolTableRecord
100
AcDbLinetypeTableRecord
  2
GEN3A
 70
     0
  3
 - - - - -
 72
    65
 73
     2
 40
3.125
 49
2.25
 74
     0
 49
-0.875
 74
     0
  0
LTYPE
  5
1A28
330
5
100
AcDbSymbolTableRecord
100
AcDbLinetypeTableRecord
  2
GEN4A
 70
     0
  3
_____ . . _____ . . _____ . . _
 72
    65
 73
     6
 40
16.25
 49
9.75
 74
     0
 49
-1.5
 74
     0
 49
1.0
 74
     0
 49
-1.5
 74
     0
 49
1.0
 74
     0
 49
-1.5
 74
     0
  0
LTYPE
  5
1A29
330
5
100
AcDbSymbolTableRecord
100
AcDbLinetypeTableRecord
  2
GEN7A
 70
     0
  3
__ . __ . __
 72
    65
 73
     4
 40
6.875
 49
4.75
 74
     0
 49
-0.875
 74
     0
 49
0.375
 74
     0
 49
-0.875
 74
     0
  0
LTYPE
  5
1A2A
330
5
100
AcDbSymbolTableRecord
100
AcDbLinetypeTableRecord
  2
genzigzag
 70
     0
  3
/\/-/\/-/\/-/\/-/\/-/\/
 72
    65
 73
     2
 40
12.0001
 49
0.0001
 74
     4
 75
   135
340
1A2F
 46
2.0
 50
0.0
 44
0.0
 45
0.0
 49
-12.0
 74
     0
  0
LTYPE
  5
2118
330
5
100
AcDbSymbolTableRecord
100
AcDbLinetypeTableRecord
  2
CONTINU
 70
     0
  3

 72
    65
 73
     0
 40
0.0
  0
ENDTAB
  0
TABLE
  2
LAYER
  5
2
330
0
100
AcDbSymbolTable
 70
    26
  0
LAYER
  5
F
330
2
100
AcDbSymbolTableRecord
100
AcDbLayerTableRecord
  2
0
 70
     0
 62
     7
  6
CONTINUOUS
370
    -3
390
166
347
2398
  0
LAYER
  5
35A
330
2
100
AcDbSymbolTableRecord
100
AcDbLayerTableRecord
  2
AM_0
 70
     0
 62
     7
  6
CONTINUOUS
370
    50
390
166
347
2398
  0
LAYER
  5
35B
330
2
100
AcDbSymbolTableRecord
100
AcDbLayerTableRecord
  2
AM_1
 70
     0
 62
     4
  6
CONTINUOUS
370
    25
390
166
347
2398
  0
LAYER
  5
35C
330
2
100
AcDbSymbolTableRecord
100
AcDbLayerTableRecord
  2
AM_2
 70
     0
 62
     5
  6
CONTINUOUS
370
    50
390
166
347
2398
  0
LAYER
  5
35D
330
2
100
AcDbSymbolTableRecord
100
AcDbLayerTableRecord
  2
AM_3
 70
     0
 62
     6
  6
AM_ISO02W050
370
    25
390
166
347
2398
  0
LAYER
  5
35E
330
2
100
AcDbSymbolTableRecord
100
AcDbLayerTableRecord
  2
AM_4
 70
     0
 62
     3
  6
CONTINUOUS
370
    25
390
166
347
2398
  0
LAYER
  5
35F
330
2
100
AcDbSymbolTableRecord
100
AcDbLayerTableRecord
  2
AM_5
 70
     0
 62
     3
  6
CONTINUOUS
370
    25
390
166
347
2398
  0
LAYER
  5
360
330
2
100
AcDbSymbolTableRecord
100
AcDbLayerTableRecord
  2
AM_6
 70
     0
 62
     2
  6
CONTINUOUS
370
    35
390
166
347
2398
  0
LAYER
  5
361
330
2
100
AcDbSymbolTableRecord
100
AcDbLayerTableRecord
  2
AM_7
 70
     0
 62
     1
  6
AM_ISO08W050
370
    25
390
166
347
2398
  0
LAYER
  5
362
330
2
100
AcDbSymbolTableRecord
100
AcDbLayerTableRecord
  2
AM_8
 70
     0
 62
     1
  6
CONTINUOUS
370
    25
390
166
347
2398
  0
LAYER
  5
38E
330
2
100
AcDbSymbolTableRecord
100
AcDbLayerTableRecord
  2
AM_FR
 70
     5
 62
     7
  6
CONTINUOUS
370
    -3
390
166
347
2398
  0
LAYER
  5
3F7
330
2
100
AcDbSymbolTableRecord
100
AcDbLayerTableRecord
  2
ASHADE
 70
     4
 62
     7
  6
CONTINUOUS
370
    -3
390
166
347
2398
  0
LAYER
  5
5FC
330
2
100
AcDbSymbolTableRecord
100
AcDbLayerTableRecord
  2
AM_WORK
 70
     0
 62
     7
  6
CONTINUOUS
370
    -3
390
166
347
2398
  0
LAYER
  5
614
330
2
100
AcDbSymbolTableRecord
100
AcDbLayerTableRecord
  2
AM_CL
 70
     0
 62
     1
  6
CONTINUOUS
370
    25
390
166
347
2398
  0
LAYER
  5
643
330
2
100
AcDbSymbolTableRecord
100
AcDbLayerTableRecord
  2
Defpoints
 70
     0
 62
     7
  6
CONTINUOUS
290
     0
370
    -3
390
166
347
2398
  0
LAYER
  5
79B
330
2
100
AcDbSymbolTableRecord
100
AcDbLayerTableRecord
  2
ASRF_TMP
 70
     0
 62
     7
  6
CONTINUOUS
370
    -3
390
166
347
2398
  0
LAYER
  5
1054
330
2
100
AcDbSymbolTableRecord
100
AcDbLayerTableRecord
  2
AM_VIEWS
 70
     0
 62
    -1
  6
CONTINUOUS
290
     0
370
    25
390
166
347
2398
  0
LAYER
  5
106E
330
2
100
AcDbSymbolTableRecord
100
AcDbLayerTableRecord
  2
AM_VIS
 70
     2
 62
     7
  6
CONTINUOUS
370
    50
390
166
347
2398
  0
LAYER
  5
106F
330
2
100
AcDbSymbolTableRecord
100
AcDbLayerTableRecord
  2
AM_HID
 70
     2
 62
     6
  6
AM_ISO02W050
370
    25
390
166
347
2398
  0
LAYER
  5
108B
330
2
100
AcDbSymbolTableRecord
100
AcDbLayerTableRecord
  2
AM_PARDIM
 70
     0
 62
     3
  6
CONTINUOUS
370
    25
390
166
347
2398
  0
LAYER
  5
1969
330
2
100
AcDbSymbolTableRecord
100
AcDbLayerTableRecord
  2
AmdtBRLock
 70
     6
 62
     7
  6
CONTINUOUS
370
    -3
390
166
347
2398
  0
LAYER
  5
1A2B
330
2
100
AcDbSymbolTableRecord
100
AcDbLayerTableRecord
  2
5
 70
     0
 62
     3
  6
CONTINUOUS
370
    -3
390
166
347
2398
  0
LAYER
  5
1A2C
330
2
100
AcDbSymbolTableRecord
100
AcDbLayerTableRecord
  2
1
 70
     0
 62
     4
  6
CONTINUOUS
370
    -3
390
166
347
2398
  0
LAYER
  5
1A2D
330
2
100
AcDbSymbolTableRecord
100
AcDbLayerTableRecord
  2
7
 70
     0
 62
     1
  6
GEN7
370
    -3
390
166
347
2398
  0
LAYER
  5
1F62
330
2
100
AcDbSymbolTableRecord
100
AcDbLayerTableRecord
  2
3A
 70
     0
 62
     6
  6
GEN3A
370
    -3
390
166
347
2398
  0
LAYER
  5
243C
330
2
100
AcDbSymbolTableRecord
100
AcDbLayerTableRecord
  2
6
 70
     0
 62
     2
  6
CONTINUOUS
370
    -3
390
166
347
2398
  0
ENDTAB
  0
TABLE
  2
STYLE
  5
3
330
0
100
AcDbSymbolTable
 70
    15
  0
STYLE
  5
10
330
3
100
AcDbSymbolTableRecord
100
AcDbTextStyleTableRecord
  2
STANDARD
 70
     0
 40
0.0
 41
1.0
 50
0.0
 71
     0
 42
3.5
  3
ISOCP
  4

  0
STYLE
  5
147
330
3
100
AcDbSymbolTableRecord
100
AcDbTextStyleTableRecord
  2
ACJISTS
 70
     0
 40
1.0
 41
1.0
 50
0.0
 71
     0
 42
3.5
  3
isocp.shx
  4
bigfont.shx
  0
STYLE
  5
148
330
3
100
AcDbSymbolTableRecord
100
AcDbTextStyleTableRecord
  2
ACJISGDT
 70
     0
 40
0.0
 41
1.0
 50
0.0
 71
     0
 42
3.5
  3
amgdt.shx
  4

  0
STYLE
  5
14B
330
3
100
AcDbSymbolTableRecord
100
AcDbTextStyleTableRecord
  2
ACANSTSI
 70
     0
 40
1.0
 41
1.0
 50
0.0
 71
     0
 42
3.5
  3
romans.shx
  4

  0
STYLE
  5
14C
330
3
100
AcDbSymbolTableRecord
100
AcDbTextStyleTableRecord
  2
ACANSGDT
 70
     0
 40
0.0
 41
1.0
 50
0.0
 71
     0
 42
3.5
  3
amgdt.shx
  4

  0
STYLE
  5
14F
330
3
100
AcDbSymbolTableRecord
100
AcDbTextStyleTableRecord
  2
ACBSITS
 70
     0
 40
1.0
 41
1.0
 50
0.0
 71
     0
 42
3.5
  3
isocp.shx
  4

  0
STYLE
  5
150
330
3
100
AcDbSymbolTableRecord
100
AcDbTextStyleTableRecord
  2
ACBSIGDT
 70
     0
 40
0.0
 41
1.0
 50
0.0
 71
     0
 42
3.5
  3
amgdt.shx
  4

  0
STYLE
  5
154
330
3
100
AcDbSymbolTableRecord
100
AcDbTextStyleTableRecord
  2
ACDINTS
 70
     0
 40
1.0
 41
1.0
 50
0.0
 71
     0
 42
3.5
  3
isocp.shx
  4

  0
STYLE
  5
155
330
3
100
AcDbSymbolTableRecord
100
AcDbTextStyleTableRecord
  2
ACDINGDT
 70
     0
 40
0.0
 41
1.0
 50
0.0
 71
     0
 42
3.5
  3
amgdt.shx
  4

  0
STYLE
  5
159
330
3
100
AcDbSymbolTableRecord
100
AcDbTextStyleTableRecord
  2
ACISOTS
 70
     0
 40
1.0
 41
1.0
 50
0.0
 71
     0
 42
3.5
  3
isocp.shx
  4

  0
STYLE
  5
15A
330
3
100
AcDbSymbolTableRecord
100
AcDbTextStyleTableRecord
  2
ACISOGDT
 70
     0
 40
0.0
 41
1.0
 50
0.0
 71
     0
 42
3.5
  3
amgdt.shx
  4

  0
STYLE
  5
17B
330
3
100
AcDbSymbolTableRecord
100
AcDbTextStyleTableRecord
  2

 70
     1
 40
0.0
 41
1.0
 50
0.0
 71
     0
 42
3.5
  3
ltypeshp.shx
  4

  0
STYLE
  5
3F4
330
3
100
AcDbSymbolTableRecord
100
AcDbTextStyleTableRecord
  2
ASHADE
 70
     0
 40
0.2
 41
1.0
 50
0.0
 71
     0
 42
3.5
  3
simplex.shx
  4

  0
STYLE
  5
1A2E
330
3
100
AcDbSymbolTableRecord
100
AcDbTextStyleTableRecord
  2
ACANSTS
 70
     0
 40
1.0
 41
1.0
 50
0.0
 71
     0
 42
2.5
  3
romans.shx
  4

  0
STYLE
  5
1A2F
330
3
100
AcDbSymbolTableRecord
100
AcDbTextStyleTableRecord
  2

 70
     1
 40
0.0
 41
1.0
 50
0.0
 71
     0
 42
2.5
  3
genltshp.shx
  4

  0
ENDTAB
  0
TABLE
  2
VIEW
  5
6
330
0
100
AcDbSymbolTable
 70
     3
  0
VIEW
  5
1C8
330
6
100
AcDbSymbolTableRecord
100
AcDbViewTableRecord
  2
AMDTVIEW1
 70
     0
 40
329.0721649484536
 10
210.0
 20
164.5360824742268
 41
420.0
 11
0.0
 21
0.0
 31
1.0
 12
0.0
 22
0.0
 32
0.0
 42
50.0
 43
0.0
 44
0.0
 50
0.0
 71
     0
281
     0
 72
     0
 73
     0
348
239F
  0
VIEW
  5
1C9
330
6
100
AcDbSymbolTableRecord
100
AcDbViewTableRecord
  2
AMDTVIEW2
 70
     0
 40
329.0721649484536
 10
210.0
 20
164.5360824742268
 41
420.0
 11
0.0
 21
0.0
 31
1.0
 12
0.0
 22
0.0
 32
0.0
 42
50.0
 43
0.0
 44
0.0
 50
0.0
 71
     0
281
     0
 72
     0
 73
     0
348
239F
  0
VIEW
  5
1CA
330
6
100
AcDbSymbolTableRecord
100
AcDbViewTableRecord
  2
AMDTVIEW3
 70
     0
 40
329.0721649484536
 10
210.0
 20
164.5360824742268
 41
420.0
 11
0.0
 21
0.0
 31
1.0
 12
0.0
 22
0.0
 32
0.0
 42
50.0
 43
0.0
 44
0.0
 50
0.0
 71
     0
281
     0
 72
     0
 73
     0
348
239F
  0
ENDTAB
  0
TABLE
  2
UCS
  5
7
330
0
100
AcDbSymbolTable
 70
     0
  0
ENDTAB
  0
TABLE
  2
APPID
  5
9
330
0
100
AcDbSymbolTable
 70
    37
  0
APPID
  5
11
330
9
100
AcDbSymbolTableRecord
100
AcDbRegAppTableRecord
  2
ACAD
 70
     0
  0
APPID
  5
CD
330
9
100
AcDbSymbolTableRecord
100
AcDbRegAppTableRecord
  2
AD_DRAW
 70
     0
  0
APPID
  5
E7
330
9
100
AcDbSymbolTableRecord
100
AcDbRegAppTableRecord
  2
DESIGNERASSEMBLIES
 70
     0
  0
APPID
  5
EB
330
9
100
AcDbSymbolTableRecord
100
AcDbRegAppTableRecord
  2
MCAD_NO_VIS
 70
     0
  0
APPID
  5
122
330
9
100
AcDbSymbolTableRecord
100
AcDbRegAppTableRecord
  2
ASURF_PCURVE_APPNAME
 70
     0
  0
APPID
  5
17F
330
9
100
AcDbSymbolTableRecord
100
AcDbRegAppTableRecord
  2
ACAD_TEMP_GRAPHIC
 70
     0
  0
APPID
  5
189
330
9
100
AcDbSymbolTableRecord
100
AcDbRegAppTableRecord
  2
ACATTRIBSERVICES
 70
     0
  0
APPID
  5
1C4
330
9
100
AcDbSymbolTableRecord
100
AcDbRegAppTableRecord
  2
ACADM_DIM_EDIT
 70
     0
  0
APPID
  5
1D5
330
9
100
AcDbSymbolTableRecord
100
AcDbRegAppTableRecord
  2
GENIUS_GENDIM_13
 70
     0
  0
APPID
  5
1D6
330
9
100
AcDbSymbolTableRecord
100
AcDbRegAppTableRecord
  2
GENIUS_GENDTOL_13
 70
     0
  0
APPID
  5
1D7
330
9
100
AcDbSymbolTableRecord
100
AcDbRegAppTableRecord
  2
GENIUS_GE3DTOL_13
 70
     0
  0
APPID
  5
3F5
330
9
100
AcDbSymbolTableRecord
100
AcDbRegAppTableRecord
  2
AVE_RENDER
 70
     0
  0
APPID
  5
3F6
330
9
100
AcDbSymbolTableRecord
100
AcDbRegAppTableRecord
  2
AVE_ENTITY_MATERIAL
 70
     0
  0
APPID
  5
403
330
9
100
AcDbSymbolTableRecord
100
AcDbRegAppTableRecord
  2
AVE_FINISH
 70
     0
  0
APPID
  5
404
330
9
100
AcDbSymbolTableRecord
100
AcDbRegAppTableRecord
  2
AVE_MATERIAL
 70
     0
  0
APPID
  5
405
330
9
100
AcDbSymbolTableRecord
100
AcDbRegAppTableRecord
  2
AVE_GLOBAL
 70
     0
  0
APPID
  5
587
330
9
100
AcDbSymbolTableRecord
100
AcDbRegAppTableRecord
  2
GENIUS_GENREC_14
 70
     0
  0
APPID
  5
588
330
9
100
AcDbSymbolTableRecord
100
AcDbRegAppTableRecord
  2
GENIUS_GENODEF_13
 70
     0
  0
APPID
  5
589
330
9
100
AcDbSymbolTableRecord
100
AcDbRegAppTableRecord
  2
GENIUS_GENOBJ-N-REC_13
 70
     0
  0
APPID
  5
5F8
330
9
100
AcDbSymbolTableRecord
100
AcDbRegAppTableRecord
  2
GENIUS_GENOBJ-3-SH3D_13
 70
     0
  0
APPID
  5
651
330
9
100
AcDbSymbolTableRecord
100
AcDbRegAppTableRecord
  2
AD_SKETCHDIM
 70
     0
  0
APPID
  5
76F
330
9
100
AcDbSymbolTableRecord
100
AcDbRegAppTableRecord
  2
AM_EDITFEAT
 70
     0
  0
APPID
  5
799
330
9
100
AcDbSymbolTableRecord
100
AcDbRegAppTableRecord
  2
GENIUS_GE3SH_14_1
 70
     0
  0
APPID
  5
79A
330
9
100
AcDbSymbolTableRecord
100
AcDbRegAppTableRecord
  2
GENIUS_GE3MANIP_13
 70
     0
  0
APPID
  5
1066
330
9
100
AcDbSymbolTableRecord
100
AcDbRegAppTableRecord
  2
GENIUS_GENSCREG_15
 70
     0
  0
APPID
  5
1068
330
9
100
AcDbSymbolTableRecord
100
AcDbRegAppTableRecord
  2
GENIUS_GENOBJ-N-SDF_13
 70
     0
  0
APPID
  5
1069
330
9
100
AcDbSymbolTableRecord
100
AcDbRegAppTableRecord
  2
GENIUS_GENOENT_13
 70
     0
  0
APPID
  5
106A
330
9
100
AcDbSymbolTableRecord
100
AcDbRegAppTableRecord
  2
GENIUS_GENOREF_13
 70
     0
  0
APPID
  5
106B
330
9
100
AcDbSymbolTableRecord
100
AcDbRegAppTableRecord
  2
GENIUS_GENOLIS_13
 70
     0
  0
APPID
  5
1348
330
9
100
AcDbSymbolTableRecord
100
AcDbRegAppTableRecord
  2
GENIUS_GENDIMSH_14
 70
     0
  0
APPID
  5
17FE
330
9
100
AcDbSymbolTableRecord
100
AcDbRegAppTableRecord
  2
AMG_3D2D_5.0
 70
     0
  0
APPID
  5
1855
330
9
100
AcDbSymbolTableRecord
100
AcDbRegAppTableRecord
  2
AMDT_DM_ADJ
 70
     0
  0
APPID
  5
1F48
330
9
100
AcDbSymbolTableRecord
100
AcDbRegAppTableRecord
  2
GENIUS_AMGTXT_16
 70
     0
  0
APPID
  5
225B
330
9
100
AcDbSymbolTableRecord
100
AcDbRegAppTableRecord
  2
GENIUS_GENOBJ-N-FIL_13
 70
     0
  0
APPID
  5
225C
330
9
100
AcDbSymbolTableRecord
100
AcDbRegAppTableRecord
  2
GENIUS_GENOBJ-N-CEN_13
 70
     0
  0
APPID
  5
275C
330
9
100
AcDbSymbolTableRecord
100
AcDbRegAppTableRecord
  2
ACAD_EXEMPT_FROM_CAD_STANDARDS
 70
     0
  0
APPID
  5
28D1
330
9
100
AcDbSymbolTableRecord
100
AcDbRegAppTableRecord
  2
GENIUS_GENCEN_19
 70
     0
  0
ENDTAB
  0
TABLE
  2
DIMSTYLE
  5
A
330
0
100
AcDbSymbolTable
 70
    52
100
AcDbDimStyleTable
 71
     5
340
395
340
25
340
62
340
2A
340
29
  0
DIMSTYLE
105
1D
330
A
100
AcDbSymbolTableRecord
100
AcDbDimStyleTableRecord
  2
STANDARD
 70
     0
 41
2.5
 42
0.625
 43
3.75
 44
1.25
 73
     0
 74
     0
 77
     1
 78
     8
140
2.5
141
2.5
143
0.0394
147
0.625
171
     4
172
     1
273
     8
274
     4
277
     6
340
10
  0
DIMSTYLE
105
25
330
A
100
AcDbSymbolTableRecord
100
AcDbDimStyleTableRecord
  2
ISO-35
 70
     0
 41
3.5
 42
0.875
 43
5.25
 44
1.75
 73
     0
 74
     0
 77
     1
 78
     8
140
3.5
141
3.5
143
0.0394
147
0.875
171
     4
172
     1
273
     8
274
     4
277
     6
340
10
  0
DIMSTYLE
105
26
330
A
100
AcDbSymbolTableRecord
100
AcDbDimStyleTableRecord
  2
ISO-5
 70
     0
 41
5.0
 42
1.25
 43
7.5
 44
2.5
 73
     0
 74
     0
 77
     1
 78
     8
140
5.0
141
5.0
143
0.0394
147
1.25
171
     4
172
     1
273
     8
274
     4
277
     6
340
10
  0
DIMSTYLE
105
27
330
A
100
AcDbSymbolTableRecord
100
AcDbDimStyleTableRecord
  2
ISO-7
 70
     0
 41
7.0
 42
1.75
 43
10.5
 44
3.5
 73
     0
 74
     0
 77
     1
 78
     8
140
7.0
141
7.0
143
0.0394
147
1.75
171
     4
172
     1
273
     8
274
     4
277
     6
340
10
  0
DIMSTYLE
105
28
330
A
100
AcDbSymbolTableRecord
100
AcDbDimStyleTableRecord
  2
ISO1
 70
     0
 41
10.0
 42
2.5
 43
15.0
 44
5.0
 73
     0
 74
     0
 77
     1
 78
     8
140
10.0
141
10.0
143
0.0394
147
2.5
171
     4
172
     1
273
     8
274
     4
277
     6
340
10
  0
DIMSTYLE
105
29
330
A
100
AcDbSymbolTableRecord
100
AcDbDimStyleTableRecord
  2
ISO1-4
 70
     0
 41
14.0
 42
3.5
 43
21.0
 44
7.0
 74
     0
 77
     1
 78
     8
140
14.0
141
14.0
143
0.0394
145
5.599999999999999
147
3.5
172
     1
273
     8
277
     6
340
10
  0
DIMSTYLE
105
2A
330
A
100
AcDbSymbolTableRecord
100
AcDbDimStyleTableRecord
  2
ISO2
 70
     0
 41
20.0
 42
5.0
 43
30.0
 44
10.0
 73
     0
 74
     0
 77
     1
 78
     8
140
20.0
141
20.0
143
0.0394
147
5.0
171
     4
172
     1
273
     8
274
     4
277
     6
340
10
  0
DIMSTYLE
105
60
330
A
100
AcDbSymbolTableRecord
100
AcDbDimStyleTableRecord
  2
ISO-4
 70
     0
 41
14.0
 42
3.5
 43
21.0
 44
7.0
 73
     0
 74
     0
 77
     1
 78
     8
140
14.0
141
14.0
143
0.0394
147
3.5
171
     4
172
     1
273
     8
274
     4
277
     6
340
10
  0
DIMSTYLE
105
62
330
A
100
AcDbSymbolTableRecord
100
AcDbDimStyleTableRecord
  2
ISO-25
 70
     0
 41
2.5
 42
0.625
 43
3.75
 44
1.25
 73
     0
 74
     0
 77
     1
 78
     8
140
2.5
141
2.5
143
0.0394
147
0.625
171
     4
172
     1
273
     8
274
     4
277
     6
340
10
  0
DIMSTYLE
105
395
102
{ACAD_REACTORS
330
1CD3
330
1D2D
330
1F71
330
2F9B
330
2F9C
330
2F9D
102
}
330
A
100
AcDbSymbolTableRecord
100
AcDbDimStyleTableRecord
  2
AM_ISO
 70
     0
  4
"
 41
3.0
 42
0.0
 43
10.0
 44
1.0
 47
0.1
 48
0.1
 73
     0
 74
     0
 77
     1
 78
     8
 79
     2
140
3.5
141
0.0
143
0.0393701
146
0.71
147
1.5
172
     1
176
   256
177
   256
178
     2
271
     2
272
     2
283
     0
340
10
371
    -1
372
    -1
  0
DIMSTYLE
105
396
330
A
100
AcDbSymbolTableRecord
100
AcDbDimStyleTableRecord
  2
AM_ISO$3
 70
     0
  4
"
 41
2.5
 42
1.0
 43
10.0
 44
1.0
 47
0.1
 48
0.1
 73
     0
 77
     1
 78
     8
 79
     2
140
3.5
141
0.0
143
0.0393701
146
0.71
147
1.5
176
   256
177
   256
178
     2
271
     2
272
     2
283
     0
288
     1
289
     0
340
10
371
    -1
372
    -1
  0
DIMSTYLE
105
397
330
A
100
AcDbSymbolTableRecord
100
AcDbDimStyleTableRecord
  2
AM_ISO$4
 70
     0
  4
"
 41
2.5
 42
1.0
 43
10.0
 44
1.0
 47
0.1
 48
0.1
 73
     0
 77
     1
 78
     8
 79
     2
140
3.5
141
0.0
143
0.0393701
146
0.71
147
1.5
176
   256
177
   256
178
     2
271
     2
272
     2
283
     0
288
     1
289
     0
340
10
371
    -1
372
    -1
  0
DIMSTYLE
105
398
330
A
100
AcDbSymbolTableRecord
100
AcDbDimStyleTableRecord
  2
AM_ISO$6
 70
     0
  4
"
 41
2.5
 42
1.0
 43
10.0
 44
1.0
 47
0.1
 48
0.1
 73
     0
 74
     0
 78
     8
 79
     2
140
3.5
141
0.0
143
0.0393701
146
0.71
147
1.5
172
     1
176
   256
177
   256
178
     2
271
     2
272
     3
274
     4
283
     0
340
10
371
    -1
372
    -1
  0
DIMSTYLE
105
399
330
A
100
AcDbSymbolTableRecord
100
AcDbDimStyleTableRecord
  2
AM_ISO$7
 70
     0
  4
"
 41
2.5
 42
1.0
 43
10.0
 44
1.0
 47
0.1
 48
0.1
 73
     0
 74
     0
 77
     1
 78
     8
 79
     2
140
5.0
141
0.0
143
0.0393701
146
0.71
147
1.5
172
     1
176
   256
177
   256
178
     2
271
     2
272
     3
274
     4
283
     0
340
10
371
    -1
372
    -1
  0
DIMSTYLE
105
39A
330
A
100
AcDbSymbolTableRecord
100
AcDbDimStyleTableRecord
  2
AM_ISO$SF
 70
     0
  4
"
 41
2.5
 42
1.0
 43
10.0
 44
1.0
 47
0.1
 48
0.1
 73
     0
 74
     0
 75
     1
 76
     1
 77
     1
 78
     8
 79
     2
140
3.5
141
0.0
143
0.0393701
146
0.71
147
1.5
172
     1
176
   256
177
   256
178
     2
271
     2
272
     3
274
     4
283
     0
340
10
371
    -1
372
    -1
  0
DIMSTYLE
105
39F
330
A
100
AcDbSymbolTableRecord
100
AcDbDimStyleTableRecord
  2
AM_ISO$SH
 70
     0
  4
"
 41
2.5
 42
1.0
 43
10.0
 44
1.0
 47
0.1
 48
0.1
 73
     0
 74
     0
 75
     1
 76
     1
 77
     1
 78
     8
 79
     2
140
3.5
141
0.0
143
0.0393701
144
2.0
146
0.71
147
1.5
172
     1
173
     1
176
   256
177
   256
178
     2
271
     2
272
     3
274
     4
283
     0
340
10
343
39B
371
    -1
372
    -1
  0
DIMSTYLE
105
1832
330
A
100
AcDbSymbolTableRecord
100
AcDbDimStyleTableRecord
  2
AM_BSI
 70
     0
  4
"
 41
4.0
 42
1.0
 43
10.0
 44
1.0
 47
0.1
 48
0.1
 73
     0
 74
     0
 77
     1
 78
     8
 79
     2
140
3.5
141
0.0
143
0.0393701
146
0.71
147
1.5
172
     1
176
   256
177
   256
178
     2
271
     2
272
     3
274
     4
283
     0
284
     8
340
10
371
    -1
372
    -1
  0
DIMSTYLE
105
1833
330
A
100
AcDbSymbolTableRecord
100
AcDbDimStyleTableRecord
  2
AM_BSI$3
 70
     0
  4
"
 41
4.0
 42
1.0
 43
10.0
 44
1.0
 47
0.1
 48
0.1
 73
     0
 77
     1
 78
     8
 79
     2
140
3.5
141
0.0
143
0.0393701
146
0.71
147
1.5
176
   256
177
   256
178
     2
271
     2
272
     3
274
     4
283
     0
284
     8
288
     1
289
     0
340
10
371
    -1
372
    -1
  0
DIMSTYLE
105
1834
330
A
100
AcDbSymbolTableRecord
100
AcDbDimStyleTableRecord
  2
AM_BSI$4
 70
     0
  4
"
 41
4.0
 42
1.0
 43
10.0
 44
1.0
 47
0.1
 48
0.1
 73
     0
 77
     1
 78
     8
 79
     2
140
3.5
141
0.0
143
0.0393701
146
0.71
147
1.5
176
   256
177
   256
178
     2
271
     2
272
     3
274
     4
283
     0
284
     8
288
     1
289
     0
340
10
371
    -1
372
    -1
  0
DIMSTYLE
105
1835
330
A
100
AcDbSymbolTableRecord
100
AcDbDimStyleTableRecord
  2
AM_BSI$6
 70
     0
  4
"
 41
4.0
 42
1.0
 43
10.0
 44
1.0
 47
0.1
 48
0.1
 73
     0
 74
     0
 78
     8
 79
     2
140
3.5
141
0.0
143
0.0393701
146
0.71
147
1.5
172
     1
176
   256
177
   256
178
     2
271
     2
272
     3
274
     4
283
     0
284
     8
340
10
371
    -1
372
    -1
  0
DIMSTYLE
105
1836
330
A
100
AcDbSymbolTableRecord
100
AcDbDimStyleTableRecord
  2
AM_BSI$7
 70
     0
  4
"
 41
2.5
 42
1.0
 43
10.0
 44
1.0
 47
0.1
 48
0.1
 73
     0
 74
     0
 77
     1
 78
     8
 79
     2
140
5.0
141
0.0
143
0.0393701
146
0.71
147
1.5
172
     1
176
   256
177
   256
178
     2
271
     2
272
     3
274
     4
283
     0
284
     8
340
10
371
    -1
372
    -1
  0
DIMSTYLE
105
1837
330
A
100
AcDbSymbolTableRecord
100
AcDbDimStyleTableRecord
  2
AM_BSI$SF
 70
     0
  4
"
 41
4.0
 42
1.0
 43
10.0
 44
1.0
 47
0.1
 48
0.1
 73
     0
 74
     0
 75
     1
 76
     1
 77
     1
 78
     8
 79
     2
140
3.5
141
0.0
143
0.0393701
146
0.71
147
1.5
172
     1
176
   256
177
   256
178
     2
271
     2
272
     3
274
     4
283
     0
284
     8
340
10
371
    -1
372
    -1
  0
DIMSTYLE
105
1838
330
A
100
AcDbSymbolTableRecord
100
AcDbDimStyleTableRecord
  2
AM_BSI$SH
 70
     0
  4
"
 41
4.0
 42
1.0
 43
10.0
 44
1.0
 47
0.1
 48
0.1
 73
     0
 74
     0
 75
     1
 76
     1
 77
     1
 78
     8
 79
     2
140
3.5
141
0.0
143
0.0393701
144
2.0
146
0.71
147
1.5
172
     1
173
     1
176
   256
177
   256
178
     2
271
     2
272
     3
274
     4
283
     0
284
     8
340
10
343
39B
371
    -1
372
    -1
  0
DIMSTYLE
105
183A
330
A
100
AcDbSymbolTableRecord
100
AcDbDimStyleTableRecord
  2
AM_DIN
 70
     0
  4
"
 41
2.5
 42
1.0
 43
10.0
 44
1.0
 47
0.1
 48
0.1
 73
     0
 74
     0
 77
     1
 78
     8
 79
     2
140
3.5
141
0.0
143
0.0393701
146
0.71
147
1.5
172
     1
176
   256
177
   256
178
     2
271
     2
272
     3
274
     4
283
     0
284
     8
340
10
371
    -1
372
    -1
  0
DIMSTYLE
105
183B
330
A
100
AcDbSymbolTableRecord
100
AcDbDimStyleTableRecord
  2
AM_DIN$3
 70
     0
  4
"
 41
2.5
 42
1.0
 43
10.0
 44
1.0
 47
0.1
 48
0.1
 73
     0
 77
     1
 78
     8
 79
     2
140
3.5
141
0.0
143
0.0393701
146
0.71
147
1.5
176
   256
177
   256
178
     2
271
     2
272
     3
274
     4
283
     0
284
     8
288
     1
289
     0
340
10
371
    -1
372
    -1
  0
DIMSTYLE
105
183C
330
A
100
AcDbSymbolTableRecord
100
AcDbDimStyleTableRecord
  2
AM_DIN$4
 70
     0
  4
"
 41
2.5
 42
1.0
 43
10.0
 44
1.0
 47
0.1
 48
0.1
 73
     0
 77
     1
 78
     8
 79
     2
140
3.5
141
0.0
143
0.0393701
146
0.71
147
1.5
176
   256
177
   256
178
     2
271
     2
272
     3
274
     4
283
     0
284
     8
288
     1
289
     0
340
10
371
    -1
372
    -1
  0
DIMSTYLE
105
183D
330
A
100
AcDbSymbolTableRecord
100
AcDbDimStyleTableRecord
  2
AM_DIN$6
 70
     0
  4
"
 41
2.5
 42
1.0
 43
10.0
 44
1.0
 47
0.1
 48
0.1
 73
     0
 74
     0
 78
     8
 79
     2
140
3.5
141
0.0
143
0.0393701
146
0.71
147
1.5
172
     1
176
   256
177
   256
178
     2
271
     2
272
     3
274
     4
283
     0
284
     8
340
10
371
    -1
372
    -1
  0
DIMSTYLE
105
183E
330
A
100
AcDbSymbolTableRecord
100
AcDbDimStyleTableRecord
  2
AM_DIN$7
 70
     0
  4
"
 41
2.5
 42
1.0
 43
10.0
 44
1.0
 47
0.1
 48
0.1
 73
     0
 74
     0
 77
     1
 78
     8
 79
     2
140
5.0
141
0.0
143
0.0393701
146
0.71
147
1.5
172
     1
176
   256
177
   256
178
     2
271
     2
272
     3
274
     4
283
     0
284
     8
340
10
371
    -1
372
    -1
  0
DIMSTYLE
105
183F
330
A
100
AcDbSymbolTableRecord
100
AcDbDimStyleTableRecord
  2
AM_DIN$SF
 70
     0
  4
"
 41
2.5
 42
1.0
 43
10.0
 44
1.0
 47
0.1
 48
0.1
 73
     0
 74
     0
 75
     1
 76
     1
 77
     1
 78
     8
 79
     2
140
3.5
141
0.0
143
0.0393701
146
0.71
147
1.5
172
     1
176
   256
177
   256
178
     2
271
     2
272
     3
274
     4
283
     0
284
     8
340
10
371
    -1
372
    -1
  0
DIMSTYLE
105
1840
330
A
100
AcDbSymbolTableRecord
100
AcDbDimStyleTableRecord
  2
AM_DIN$SH
 70
     0
  4
"
 41
2.5
 42
1.0
 43
10.0
 44
1.0
 47
0.1
 48
0.1
 73
     0
 74
     0
 75
     1
 76
     1
 77
     1
 78
     8
 79
     2
140
3.5
141
0.0
143
0.0393701
144
2.0
146
0.71
147
1.5
172
     1
173
     1
176
   256
177
   256
178
     2
271
     2
272
     3
274
     4
283
     0
284
     8
340
10
343
39B
371
    -1
372
    -1
  0
DIMSTYLE
105
1843
330
A
100
AcDbSymbolTableRecord
100
AcDbDimStyleTableRecord
  2
AM_JIS
 70
     0
  4
"
 41
2.5
 42
1.0
 43
10.0
 44
1.0
 47
0.1
 48
0.1
 73
     0
 74
     0
 77
     3
 78
     8
 79
     2
140
3.5
141
0.0
143
0.0393701
146
0.71
147
1.5
172
     1
176
   256
177
   256
178
     2
271
     2
272
     3
274
     4
283
     0
284
     8
340
10
341
1844
342
1844
343
1844
344
1844
371
    -1
372
    -1
  0
DIMSTYLE
105
184A
330
A
100
AcDbSymbolTableRecord
100
AcDbDimStyleTableRecord
  2
AM_JIS$3
 70
     0
  4
"
 41
2.5
 42
1.0
 43
10.0
 44
1.0
 47
0.1
 48
0.1
 73
     0
 77
     3
 78
     8
 79
     2
140
3.5
141
0.0
143
0.0393701
146
0.71
147
1.5
176
   256
177
   256
178
     2
271
     2
272
     3
274
     4
283
     0
284
     8
288
     1
289
     0
340
10
341
1844
342
1844
343
1844
344
1844
371
    -1
372
    -1
  0
DIMSTYLE
105
184B
330
A
100
AcDbSymbolTableRecord
100
AcDbDimStyleTableRecord
  2
AM_JIS$4
 70
     0
  4
"
 41
2.5
 42
1.0
 43
10.0
 44
1.0
 47
0.1
 48
0.1
 73
     0
 77
     3
 78
     8
 79
     2
140
3.5
141
0.0
143
0.0393701
146
0.71
147
1.5
176
   256
177
   256
178
     2
271
     2
272
     3
274
     4
283
     0
284
     8
288
     1
289
     0
340
10
341
1844
342
1844
343
1844
344
1844
371
    -1
372
    -1
  0
DIMSTYLE
105
184C
330
A
100
AcDbSymbolTableRecord
100
AcDbDimStyleTableRecord
  2
AM_JIS$6
 70
     0
  4
"
 41
2.5
 42
1.0
 43
10.0
 44
1.0
 47
0.1
 48
0.1
 73
     0
 74
     0
 78
     8
 79
     2
140
3.5
141
0.0
143
0.0393701
146
0.71
147
1.5
172
     1
176
   256
177
   256
178
     2
271
     2
272
     3
274
     4
283
     0
284
     8
340
10
341
1844
342
1844
343
1844
344
1844
371
    -1
372
    -1
  0
DIMSTYLE
105
184D
330
A
100
AcDbSymbolTableRecord
100
AcDbDimStyleTableRecord
  2
AM_JIS$7
 70
     0
  4
"
 41
2.5
 42
1.0
 43
10.0
 44
1.0
 47
0.1
 48
0.1
 73
     0
 74
     0
 77
     3
 78
     8
 79
     2
140
5.0
141
0.0
143
0.0393701
146
0.71
147
1.5
172
     1
176
   256
177
   256
178
     2
271
     2
272
     3
274
     4
283
     0
284
     8
340
10
341
1844
342
1844
343
1844
344
1844
371
    -1
372
    -1
  0
DIMSTYLE
105
184E
330
A
100
AcDbSymbolTableRecord
100
AcDbDimStyleTableRecord
  2
AM_JIS$SF
 70
     0
  4
"
 41
2.5
 42
1.0
 43
10.0
 44
1.0
 47
0.1
 48
0.1
 73
     0
 74
     0
 75
     1
 76
     1
 77
     3
 78
     8
 79
     2
140
3.5
141
0.0
143
0.0393701
146
0.71
147
1.5
172
     1
176
   256
177
   256
178
     2
271
     2
272
     3
274
     4
283
     0
284
     8
340
10
341
1844
342
1844
343
1844
344
1844
371
    -1
372
    -1
  0
DIMSTYLE
105
184F
330
A
100
AcDbSymbolTableRecord
100
AcDbDimStyleTableRecord
  2
AM_JIS$SH
 70
     0
  4
"
 41
2.5
 42
1.0
 43
10.0
 44
1.0
 47
0.1
 48
0.1
 73
     0
 74
     0
 75
     1
 76
     1
 77
     3
 78
     8
 79
     2
140
3.5
141
0.0
143
0.0393701
144
2.0
146
0.71
147
1.5
172
     1
173
     1
176
   256
177
   256
178
     2
271
     2
272
     3
274
     4
283
     0
284
     8
340
10
341
1844
342
1844
343
39B
344
1844
371
    -1
372
    -1
  0
DIMSTYLE
105
1A30
330
A
100
AcDbSymbolTableRecord
100
AcDbDimStyleTableRecord
  2
GEN-ISO$4
 70
     0
  3
<>
  4
"
 41
3.0
 42
0.0
 43
10.0
 44
1.0
 47
0.1
 48
0.1
 73
     0
 77
     1
 78
     8
140
3.5
141
0.0
143
0.03937
146
0.71
147
1.0
176
   256
177
   256
178
     2
340
10
  0
DIMSTYLE
105
1A31
330
A
100
AcDbSymbolTableRecord
100
AcDbDimStyleTableRecord
  2
GEN-ISO$3
 70
     0
  3
<>
  4
"
 41
3.0
 42
0.0
 43
10.0
 44
1.0
 47
0.1
 48
0.1
 73
     0
 77
     1
 78
     8
140
3.5
141
0.0
143
0.03937
146
0.71
147
1.0
176
   256
177
   256
178
     2
340
10
  0
DIMSTYLE
105
1A32
330
A
100
AcDbSymbolTableRecord
100
AcDbDimStyleTableRecord
  2
GEN-ISO
 70
     0
  4
"
 41
3.0
 42
0.0
 43
10.0
 44
1.0
 47
0.1
 48
0.1
 73
     0
 74
     0
 77
     1
 78
     8
140
3.5
141
0.0
143
0.03937
146
0.71
147
1.0
172
     1
176
   256
177
   256
178
     2
340
10
  0
DIMSTYLE
105
1A33
330
A
100
AcDbSymbolTableRecord
100
AcDbDimStyleTableRecord
  2
GEN-ISO$6
 70
     0
  3
<>
  4
"
 41
3.0
 42
0.0
 43
10.0
 44
1.0
 47
0.1
 48
0.1
 73
     0
 74
     0
 78
     8
140
3.5
141
0.0
143
0.0393701
146
0.71
147
1.0
176
   256
177
   256
178
     2
271
     1
272
     3
274
     4
275
     1
283
     0
284
     8
340
10
  0
DIMSTYLE
105
1A34
330
A
100
AcDbSymbolTableRecord
100
AcDbDimStyleTableRecord
  2
GEN-ISO-POS
 70
     0
  3
<>
  4
"
 41
2.5
 42
0.0
 43
10.0
 44
1.0
 47
0.1
 48
0.1
 73
     0
 74
     0
 78
     8
140
5.0
141
0.0
143
0.0393701
146
0.71
147
1.5
176
   256
177
   256
178
     2
271
     1
272
     3
274
     4
275
     1
283
     0
284
     8
340
10
  0
DIMSTYLE
105
1A35
330
A
100
AcDbSymbolTableRecord
100
AcDbDimStyleTableRecord
  2
GEN-ISO-AXE-F
 70
     0
  3
<>
  4
"
 41
3.0
 42
0.0
 43
10.0
 44
1.0
 47
0.1
 48
0.1
 73
     0
 74
     0
 75
     1
 76
     1
 77
     1
 78
     8
140
3.5
141
0.0
143
0.0393701
146
0.71
147
1.0
172
     1
176
   256
177
   256
178
     2
271
     1
272
     3
274
     4
275
     1
283
     0
284
     8
340
10
  0
DIMSTYLE
105
1A36
330
A
100
AcDbSymbolTableRecord
100
AcDbDimStyleTableRecord
  2
GEN-ISO-AXE-H
 70
     0
  3
<>
  4
"
 41
3.0
 42
0.0
 43
10.0
 44
1.0
 47
0.1
 48
0.1
 73
     0
 74
     0
 75
     1
 76
     1
 77
     1
 78
     8
140
3.5
141
0.0
143
0.0393701
144
2.0
146
0.71
147
1.0
172
     1
173
     1
176
   256
177
   256
178
     2
271
     1
272
     3
274
     4
275
     1
283
     0
284
     8
340
10
  0
DIMSTYLE
105
243D
330
A
100
AcDbSymbolTableRecord
100
AcDbDimStyleTableRecord
  2
GEN-ANSI
 70
     0
  3
<>
  4
"
 41
3.0
 42
0.0
 43
10.0
 44
1.0
 47
0.1
 48
0.1
 78
     8
140
3.5
141
0.0
143
0.0393701
144
2.0
146
0.71
147
1.0
176
   256
177
   256
178
     2
271
     1
272
     3
274
     4
275
     1
284
     8
340
10
  0
DIMSTYLE
105
243E
330
A
100
AcDbSymbolTableRecord
100
AcDbDimStyleTableRecord
  2
GEN-ANSI$3
 70
     0
  3
<>
  4
"
 41
3.0
 42
0.0
 43
10.0
 44
1.0
 47
0.1
 48
0.1
 78
     8
140
3.5
141
0.0
143
0.0393701
144
2.0
146
0.71
147
1.0
176
   256
177
   256
178
     2
271
     1
272
     3
274
     4
275
     1
284
     8
288
     1
289
     0
340
10
  0
DIMSTYLE
105
243F
330
A
100
AcDbSymbolTableRecord
100
AcDbDimStyleTableRecord
  2
GEN-ANSI$4
 70
     0
  3
<>
  4
"
 41
3.0
 42
0.0
 43
10.0
 44
1.0
 47
0.1
 48
0.1
 78
     8
140
3.5
141
0.0
143
0.0393701
144
2.0
146
0.71
147
1.0
176
   256
177
   256
178
     2
271
     1
272
     3
274
     4
275
     1
284
     8
288
     1
289
     0
340
10
  0
DIMSTYLE
105
2440
330
A
100
AcDbSymbolTableRecord
100
AcDbDimStyleTableRecord
  2
GEN-ANSI$6
 70
     0
  3
<>
  4
"
 41
3.0
 42
0.0
 43
10.0
 44
1.0
 47
0.1
 48
0.1
 78
     8
140
3.5
141
0.0
143
0.0393701
144
2.0
146
0.71
147
1.0
176
   256
177
   256
178
     2
271
     1
272
     3
274
     4
275
     1
284
     8
340
10
  0
DIMSTYLE
105
2441
330
A
100
AcDbSymbolTableRecord
100
AcDbDimStyleTableRecord
  2
GEN-ANSI-POS
 70
     0
  3
<>
  4
"
 41
2.5
 42
0.0
 43
10.0
 44
1.0
 47
0.1
 48
0.1
 73
     0
 74
     0
 78
     8
140
5.0
141
0.0
143
0.0393701
144
2.0
146
0.71
147
1.5
176
   256
177
   256
178
     2
271
     1
272
     3
274
     4
275
     1
284
     8
340
10
  0
DIMSTYLE
105
2442
330
A
100
AcDbSymbolTableRecord
100
AcDbDimStyleTableRecord
  2
GEN-ANSI-AXE-F
 70
     0
  3
<>
  4
"
 41
3.0
 42
0.0
 43
10.0
 44
1.0
 47
0.1
 48
0.1
 75
     1
 76
     1
 78
     8
140
3.5
141
0.0
143
0.0393701
144
2.0
146
0.71
147
1.0
173
     1
176
   256
177
   256
178
     2
271
     1
272
     3
274
     4
275
     1
284
     8
340
10
343
39B
  0
DIMSTYLE
105
2443
330
A
100
AcDbSymbolTableRecord
100
AcDbDimStyleTableRecord
  2
GEN-ANSI-AXE-H
 70
     0
  3
<>
  4
"
 41
3.0
 42
0.0
 43
10.0
 44
1.0
 47
0.1
 48
0.1
 73
     0
 74
     0
 75
     1
 76
     1
 78
     8
140
3.5
141
0.0
143
0.0393701
144
2.0
146
0.71
147
1.0
172
     1
173
     1
176
   256
177
   256
178
     2
271
     1
272
     3
274
     4
275
     1
284
     8
340
10
343
39B
  0
DIMSTYLE
105
278A
102
{ACAD_REACTORS
330
1CD3
330
1D2D
330
1F71
330
278C
102
}
330
A
100
AcDbSymbolTableRecord
100
AcDbDimStyleTableRecord
  2
AM_ISO$0
 70
     0
  4
"
 41
3.0
 42
0.0
 43
10.0
 44
1.0
 47
0.1
 48
0.1
 73
     0
 74
     0
 77
     1
 78
     8
 79
     2
140
3.5
141
0.0
143
0.0393701
146
0.71
147
1.5
172
     1
176
   256
177
   256
178
     2
271
     2
272
     2
283
     0
340
10
371
    -1
372
    -1
  0
ENDTAB
  0
TABLE
  2
BLOCK_RECORD
  5
1
330
0
100
AcDbSymbolTable
 70
    25
  0
BLOCK_RECORD
  5
1A
102
{ACAD_XDICTIONARY
360
12A
102
}
330
1
100
AcDbSymbolTableRecord
100
AcDbBlockTableRecord
  2
*MODEL_SPACE
340
169
 70
     0
280
     1
281
     0
  0
BLOCK_RECORD
  5
17
330
1
100
AcDbSymbolTableRecord
100
AcDbBlockTableRecord
  2
*PAPER_SPACE
340
16A
 70
     0
280
     1
281
     0
  0
BLOCK_RECORD
  5
34D
330
1
100
AcDbSymbolTableRecord
100
AcDbBlockTableRecord
  2
*Paper_Space0
340
351
 70
     0
280
     1
281
     0
  0
BLOCK_RECORD
  5
313
330
1
100
AcDbSymbolTableRecord
100
AcDbBlockTableRecord
  2
*Paper_Space1
340
314
 70
     0
280
     1
281
     0
  0
BLOCK_RECORD
  5
2E0
330
1
100
AcDbSymbolTableRecord
100
AcDbBlockTableRecord
  2
*Paper_Space2
340
2E1
 70
     0
280
     1
281
     0
  0
BLOCK_RECORD
  5
345
330
1
100
AcDbSymbolTableRecord
100
AcDbBlockTableRecord
  2
*Paper_Space3
340
349
 70
     0
280
     1
281
     0
  0
BLOCK_RECORD
  5
39B
330
1
100
AcDbSymbolTableRecord
100
AcDbBlockTableRecord
  2
GENAXEH
340
0
 70
     0
280
     1
281
     0
  0
BLOCK_RECORD
  5
3F8
330
1
100
AcDbSymbolTableRecord
100
AcDbBlockTableRecord
  2
AVE_RENDER
340
0
102
{BLKREFS
331
3FB
331
3FC
331
3FD
331
3FE
331
3FF
331
400
331
401
331
402
102
}
 70
     0
280
     1
281
     0
  0
BLOCK_RECORD
  5
406
330
1
100
AcDbSymbolTableRecord
100
AcDbBlockTableRecord
  2
AVE_GLOBAL
340
0
102
{BLKREFS
331
409
102
}
 70
     0
280
     1
281
     0
  0
BLOCK_RECORD
  5
594
330
1
100
AcDbSymbolTableRecord
100
AcDbBlockTableRecord
  2
*U7
340
0
 70
     0
280
     1
281
     0
  0
BLOCK_RECORD
  5
5E5
330
1
100
AcDbSymbolTableRecord
100
AcDbBlockTableRecord
  2
*U8
340
0
 70
     0
280
     1
281
     0
  0
BLOCK_RECORD
  5
1366
330
1
100
AcDbSymbolTableRecord
100
AcDbBlockTableRecord
  2
GENDOT
340
0
 70
     0
280
     1
281
     0
  0
BLOCK_RECORD
  5
1844
330
1
100
AcDbSymbolTableRecord
100
AcDbBlockTableRecord
  2
_Open30
340
0
 70
     0
280
     1
281
     0
  0
BLOCK_RECORD
  5
1CD4
330
1
100
AcDbSymbolTableRecord
100
AcDbBlockTableRecord
  2
*D11
340
0
 70
     0
280
     1
281
     0
  0
BLOCK_RECORD
  5
1D2E
330
1
100
AcDbSymbolTableRecord
100
AcDbBlockTableRecord
  2
*D12
340
0
 70
     0
280
     1
281
     0
  0
BLOCK_RECORD
  5
1F72
330
1
100
AcDbSymbolTableRecord
100
AcDbBlockTableRecord
  2
*D13
340
0
 70
     0
280
     1
281
     0
  0
BLOCK_RECORD
  5
23F7
330
1
100
AcDbSymbolTableRecord
100
AcDbBlockTableRecord
  2
BLK1
340
0
102
{BLKREFS
331
247C
102
}
 70
     0
280
     1
281
     0
  0
BLOCK_RECORD
  5
23FA
330
1
100
AcDbSymbolTableRecord
100
AcDbBlockTableRecord
  2
BLK2
340
0
102
{BLKREFS
331
247D
102
}
 70
     0
280
     1
281
     0
  0
BLOCK_RECORD
  5
23FD
330
1
100
AcDbSymbolTableRecord
100
AcDbBlockTableRecord
  2
BLK9
340
0
102
{BLKREFS
331
247E
102
}
 70
     0
280
     1
281
     0
  0
BLOCK_RECORD
  5
2400
330
1
100
AcDbSymbolTableRecord
100
AcDbBlockTableRecord
  2
BLK10
340
0
102
{BLKREFS
331
247F
102
}
 70
     0
280
     1
281
     0
  0
BLOCK_RECORD
  5
2403
330
1
100
AcDbSymbolTableRecord
100
AcDbBlockTableRecord
  2
BLK13
340
0
102
{BLKREFS
331
2480
102
}
 70
     0
280
     1
281
     0
  0
BLOCK_RECORD
  5
2406
330
1
100
AcDbSymbolTableRecord
100
AcDbBlockTableRecord
  2
BLK14
340
0
102
{BLKREFS
331
2481
102
}
 70
     0
280
     1
281
     0
  0
BLOCK_RECORD
  5
2409
330
1
100
AcDbSymbolTableRecord
100
AcDbBlockTableRecord
  2
BLK15
340
0
102
{BLKREFS
331
2482
102
}
 70
     0
280
     1
281
     0
  0
BLOCK_RECORD
  5
278D
330
1
100
AcDbSymbolTableRecord
100
AcDbBlockTableRecord
  2
*D21
340
0
 70
     0
280
     1
281
     0
  0
BLOCK_RECORD
  5
2FAA
330
1
100
AcDbSymbolTableRecord
100
AcDbBlockTableRecord
  2
*D22
340
0
 70
     0
280
     1
281
     0
  0
BLOCK_RECORD
  5
2FB6
330
1
100
AcDbSymbolTableRecord
100
AcDbBlockTableRecord
  2
*D23
340
0
 70
     0
280
     1
281
     0
  0
BLOCK_RECORD
  5
2FC2
330
1
100
AcDbSymbolTableRecord
100
AcDbBlockTableRecord
  2
*D24
340
0
 70
     0
280
     1
281
     0
  0
ENDTAB
  0
ENDSEC
  0
SECTION
  2
BLOCKS
  0
BLOCK
  5
1B
330
1A
100
AcDbEntity
  8
0
100
AcDbBlockBegin
  2
*MODEL_SPACE
 70
     0
 10
0.0
 20
0.0
 30
0.0
  3
*MODEL_SPACE
  1

  0
ENDBLK
  5
1C
330
1A
100
AcDbEntity
  8
0
100
AcDbBlockEnd
  0
BLOCK
  5
18
330
17
100
AcDbEntity
 67
     1
  8
0
100
AcDbBlockBegin
  2
*PAPER_SPACE
 70
     0
 10
0.0
 20
0.0
 30
0.0
  3
*PAPER_SPACE
  1

  0
ENDBLK
  5
19
330
17
100
AcDbEntity
 67
     1
  8
0
100
AcDbBlockEnd
  0
BLOCK
  5
34F
330
34D
100
AcDbEntity
 67
     1
  8
0
100
AcDbBlockBegin
  2
*Paper_Space0
 70
     0
 10
0.0
 20
0.0
 30
0.0
  3
*Paper_Space0
  1

  0
VIEWPORT
  5
34E
330
34D
100
AcDbEntity
 67
     1
  8
AM_VIEWS
100
AcDbViewport
 10
577.468994140625
 20
415.4593176841736
 30
0.0
 40
1195.734595476714
 41
932.8590910236622
 68
     0
 69
     0
 12
577.468994140625
 22
415.4593176841736
 13
0.0
 23
0.0
 14
10.0
 24
10.0
 15
10.0
 25
10.0
 16
0.0
 26
0.0
 36
1.0
 17
0.0
 27
0.0
 37
0.0
 42
50.0
 43
0.0
 44
0.0
 45
932.8590910236622
 50
0.0
 51
0.0
 72
   100
331
1969
 90
    32800
  1

281
     0
 71
     1
 74
     0
110
0.0
120
0.0
130
0.0
111
1.0
121
0.0
131
0.0
112
0.0
122
1.0
132
0.0
 79
     0
146
0.0
170
     0
 61
     5
348
239F
292
     1
282
     1
141
0.0
142
0.0
 63
   250
421
  3355443
  0
ENDBLK
  5
350
330
34D
100
AcDbEntity
 67
     1
  8
0
100
AcDbBlockEnd
  0
BLOCK
  5
315
330
313
100
AcDbEntity
 67
     1
  8
0
100
AcDbBlockBegin
  2
*Paper_Space1
 70
     0
 10
0.0
 20
0.0
 30
0.0
  3
*Paper_Space1
  1

  0
VIEWPORT
  5
344
330
313
100
AcDbEntity
 67
     1
  8
AM_VIEWS
100
AcDbViewport
 10
279.9926452636719
 20
204.9779944419861
 30
0.0
 40
597.3137355517764
 41
465.9976808487594
 68
     0
 69
     0
 12
279.9926452636719
 22
204.9779944419861
 13
0.0
 23
0.0
 14
10.0
 24
10.0
 15
10.0
 25
10.0
 16
0.0
 26
0.0
 36
1.0
 17
0.0
 27
0.0
 37
0.0
 42
50.0
 43
0.0
 44
0.0
 45
465.9976808487594
 50
0.0
 51
0.0
 72
   100
331
1969
 90
    32800
  1

281
     0
 71
     1
 74
     0
110
0.0
120
0.0
130
0.0
111
1.0
121
0.0
131
0.0
112
0.0
122
1.0
132
0.0
 79
     0
146
0.0
170
     0
 61
     5
348
239F
292
     1
282
     1
141
0.0
142
0.0
 63
   250
421
  3355443
  0
ENDBLK
  5
316
330
313
100
AcDbEntity
 67
     1
  8
0
100
AcDbBlockEnd
  0
BLOCK
  5
2E2
330
2E0
100
AcDbEntity
 67
     1
  8
0
100
AcDbBlockBegin
  2
*Paper_Space2
 70
     0
 10
0.0
 20
0.0
 30
0.0
  3
*Paper_Space2
  1

  0
VIEWPORT
  5
31D
330
2E0
100
AcDbEntity
 67
     1
  8
AM_VIEWS
100
AcDbViewport
 10
204.9674224853516
 20
143.4782419204712
 30
0.0
 40
422.4372280469156
 41
329.5667868615042
 68
     0
 69
     0
 12
204.9674224853516
 22
143.4782419204712
 13
0.0
 23
0.0
 14
10.0
 24
10.0
 15
10.0
 25
10.0
 16
0.0
 26
0.0
 36
1.0
 17
0.0
 27
0.0
 37
0.0
 42
50.0
 43
0.0
 44
0.0
 45
329.5667868615042
 50
0.0
 51
0.0
 72
   100
331
1969
 90
    32800
  1

281
     0
 71
     1
 74
     0
110
0.0
120
0.0
130
0.0
111
1.0
121
0.0
131
0.0
112
0.0
122
1.0
132
0.0
 79
     0
146
0.0
170
     0
 61
     5
348
239F
292
     1
282
     1
141
0.0
142
0.0
 63
   250
421
  3355443
  0
ENDBLK
  5
2E3
330
2E0
100
AcDbEntity
 67
     1
  8
0
100
AcDbBlockEnd
  0
BLOCK
  5
347
330
345
100
AcDbEntity
 67
     1
  8
0
100
AcDbBlockBegin
  2
*Paper_Space3
 70
     0
 10
0.0
 20
0.0
 30
0.0
  3
*Paper_Space3
  1

  0
VIEWPORT
  5
346
330
345
100
AcDbEntity
 67
     1
  8
AM_VIEWS
100
AcDbViewport
 10
279.9926452636719
 20
204.9779944419861
 30
0.0
 40
597.3137355517764
 41
465.9976808487594
 68
     0
 69
     0
 12
279.9926452636719
 22
204.9779944419861
 13
0.0
 23
0.0
 14
10.0
 24
10.0
 15
10.0
 25
10.0
 16
0.0
 26
0.0
 36
1.0
 17
0.0
 27
0.0
 37
0.0
 42
50.0
 43
0.0
 44
0.0
 45
465.9976808487594
 50
0.0
 51
0.0
 72
   100
331
1969
 90
    32800
  1

281
     0
 71
     1
 74
     0
110
0.0
120
0.0
130
0.0
111
1.0
121
0.0
131
0.0
112
0.0
122
1.0
132
0.0
 79
     0
146
0.0
170
     0
 61
     5
348
239F
292
     1
282
     1
141
0.0
142
0.0
 63
   250
421
  3355443
  0
ENDBLK
  5
348
330
345
100
AcDbEntity
 67
     1
  8
0
100
AcDbBlockEnd
  0
BLOCK
  5
39D
330
39B
100
AcDbEntity
  8
0
100
AcDbBlockBegin
  2
GENAXEH
 70
     0
 10
0.0
 20
0.0
 30
0.0
  3
GENAXEH
  1

  0
LINE
  5
39C
330
39B
100
AcDbEntity
  8
0
100
AcDbLine
 10
-1.0
 20
0.0
 30
0.0
 11
1.0
 21
0.0
 31
0.0
  0
ENDBLK
  5
39E
330
39B
100
AcDbEntity
  8
0
100
AcDbBlockEnd
  0
BLOCK
  5
3F9
330
3F8
100
AcDbEntity
  8
ASHADE
100
AcDbBlockBegin
  2
AVE_RENDER
 70
     0
 10
0.0
 20
0.0
 30
0.0
  3
AVE_RENDER
  1
AVE_RENDER
  0
ENDBLK
  5
3FA
330
3F8
100
AcDbEntity
  8
0
100
AcDbBlockEnd
  0
BLOCK
  5
407
330
406
100
AcDbEntity
  8
ASHADE
100
AcDbBlockBegin
  2
AVE_GLOBAL
 70
     0
 10
0.0
 20
0.0
 30
0.0
  3
AVE_GLOBAL
  1
AVE_GLOBAL
  0
ENDBLK
  5
408
330
406
100
AcDbEntity
  8
0
100
AcDbBlockEnd
  0
BLOCK
  5
595
330
594
100
AcDbEntity
  8
0
100
AcDbBlockBegin
  2
*U7
 70
     1
 10
0.0
 20
0.0
 30
0.0
  3
*U7
  1

  0
ENDBLK
  5
596
330
594
100
AcDbEntity
  8
0
100
AcDbBlockEnd
  0
BLOCK
  5
5E6
330
5E5
100
AcDbEntity
  8
0
100
AcDbBlockBegin
  2
*U8
 70
     1
 10
0.0
 20
0.0
 30
0.0
  3
*U8
  1

  0
ENDBLK
  5
5E7
330
5E5
100
AcDbEntity
  8
0
100
AcDbBlockEnd
  0
BLOCK
  5
1369
330
1366
100
AcDbEntity
  8
0
100
AcDbBlockBegin
  2
GENDOT
 70
     0
 10
0.0
 20
0.0
 30
0.0
  3
GENDOT
  1

  0
LINE
  5
1367
330
1366
100
AcDbEntity
  8
0
100
AcDbLine
 10
0.0
 20
0.0
 30
0.0
 11
-1.0
 21
0.0
 31
0.0
  0
LWPOLYLINE
  5
1368
330
1366
100
AcDbEntity
  8
0
100
AcDbPolyline
 90
        2
 70
     1
 43
0.25
 10
-0.125
 20
0.0
 42
1.0
 10
0.125
 20
0.0
 42
1.0
  0
ENDBLK
  5
136A
330
1366
100
AcDbEntity
  8
0
100
AcDbBlockEnd
  0
BLOCK
  5
1848
330
1844
100
AcDbEntity
  8
0
100
AcDbBlockBegin
  2
_Open30
 70
     0
 10
0.0
 20
0.0
 30
0.0
  3
_Open30
  1

  0
LINE
  5
1845
330
1844
100
AcDbEntity
  8
0
  6
ByBlock
 62
     0
370
    -2
100
AcDbLine
 10
-1.0
 20
0.26794919
 30
0.0
 11
0.0
 21
0.0
 31
0.0
  0
LINE
  5
1846
330
1844
100
AcDbEntity
  8
0
  6
ByBlock
 62
     0
370
    -2
100
AcDbLine
 10
0.0
 20
0.0
 30
0.0
 11
-1.0
 21
-0.26794919
 31
0.0
  0
LINE
  5
1847
330
1844
100
AcDbEntity
  8
0
  6
ByBlock
 62
     0
370
    -2
100
AcDbLine
 10
0.0
 20
0.0
 30
0.0
 11
-1.0
 21
0.0
 31
0.0
  0
ENDBLK
  5
1849
330
1844
100
AcDbEntity
  8
0
100
AcDbBlockEnd
  0
BLOCK
  5
1CDE
330
1CD4
100
AcDbEntity
  8
0
100
AcDbBlockBegin
  2
*D11
 70
     1
 10
0.0
 20
0.0
 30
0.0
  3
*D11
  1

  0
LINE
  5
3189
330
1CD4
100
AcDbEntity
  8
AM_5
100
AcDbLine
 10
141.760091640376
 20
236.563816128159
 30
0.0
 11
141.760091640376
 21
276.0638029625348
 31
0.0
  0
LINE
  5
318A
330
1CD4
100
AcDbEntity
  8
AM_5
100
AcDbLine
 10
170.760091640376
 20
236.563816128159
 30
0.0
 11
170.760091640376
 21
276.0638029625348
 31
0.0
  0
LINE
  5
318B
330
1CD4
100
AcDbEntity
  8
AM_5
100
AcDbLine
 10
147.760091640376
 20
274.0638029625348
 30
0.0
 11
164.760091640376
 21
274.0638029625348
 31
0.0
  0
SOLID
  5
318C
330
1CD4
100
AcDbEntity
  8
AM_5
100
AcDbTrace
 10
147.760091640376
 20
275.0638029625349
 30
0.0
 11
147.760091640376
 21
273.0638029625349
 31
0.0
 12
141.760091640376
 22
274.0638029625348
 32
0.0
 13
141.760091640376
 23
274.0638029625348
 33
0.0
  0
SOLID
  5
318D
330
1CD4
100
AcDbEntity
  8
AM_5
100
AcDbTrace
 10
164.760091640376
 20
275.0638029625349
 30
0.0
 11
164.760091640376
 21
273.0638029625349
 31
0.0
 12
170.760091640376
 22
274.0638029625348
 32
0.0
 13
170.760091640376
 23
274.0638029625348
 33
0.0
  0
MTEXT
  5
318E
330
1CD4
100
AcDbEntity
  8
AM_5
 62
     2
100
AcDbMText
 10
156.260091640376
 20
280.5644919389128
 30
0.0
 40
7.0
 41
0.0
 46
0.0
 71
     5
 72
     1
  1
29
 73
     1
 44
1.0
  0
POINT
  5
318F
330
1CD4
100
AcDbEntity
  8
Defpoints
 62
     0
100
AcDbPoint
 10
141.760091640376
 20
236.563816128159
 30
0.0
  0
POINT
  5
3190
330
1CD4
100
AcDbEntity
  8
Defpoints
 62
     0
100
AcDbPoint
 10
170.760091640376
 20
236.563816128159
 30
0.0
  0
POINT
  5
3191
330
1CD4
100
AcDbEntity
  8
Defpoints
 62
     0
100
AcDbPoint
 10
170.760091640376
 20
274.0638029625348
 30
0.0
  0
ENDBLK
  5
1CDF
330
1CD4
100
AcDbEntity
  8
0
100
AcDbBlockEnd
  0
BLOCK
  5
1D38
330
1D2E
100
AcDbEntity
  8
0
100
AcDbBlockBegin
  2
*D12
 70
     1
 10
0.0
 20
0.0
 30
0.0
  3
*D12
  1

  0
LINE
  5
1F96
330
1D2E
100
AcDbEntity
  8
AM_5
100
AcDbLine
 10
156.260091640376
 20
251.063816128159
 30
0.0
 11
95.760091640376
 21
251.063816128159
 31
0.0
  0
LINE
  5
1F97
330
1D2E
100
AcDbEntity
  8
AM_5
100
AcDbLine
 10
156.260091640376
 20
179.063816128159
 30
0.0
 11
95.76009164037598
 21
179.063816128159
 31
0.0
  0
LINE
  5
1F98
330
1D2E
100
AcDbEntity
  8
AM_5
100
AcDbLine
 10
97.76009164037601
 20
245.063816128159
 30
0.0
 11
97.76009164037599
 21
185.063816128159
 31
0.0
  0
SOLID
  5
1F99
330
1D2E
100
AcDbEntity
  8
AM_5
100
AcDbTrace
 10
96.76009164037601
 20
245.063816128159
 30
0.0
 11
98.76009164037601
 21
245.063816128159
 31
0.0
 12
97.76009164037601
 22
251.063816128159
 32
0.0
 13
97.76009164037601
 23
251.063816128159
 33
0.0
  0
SOLID
  5
1F9A
330
1D2E
100
AcDbEntity
  8
AM_5
100
AcDbTrace
 10
96.760091640376
 20
185.063816128159
 30
0.0
 11
98.76009164037599
 21
185.063816128159
 31
0.0
 12
97.76009164037599
 22
179.063816128159
 32
0.0
 13
97.76009164037599
 23
179.063816128159
 33
0.0
  0
MTEXT
  5
1F9B
330
1D2E
100
AcDbEntity
  8
AM_5
 62
     2
100
AcDbMText
 10
91.25940266399799
 20
215.0638161281591
 30
0.0
 40
7.0
 41
0.0
 46
0.0
 71
     5
 72
     1
  1
72
 11
0.0000000000000001
 21
1.0
 31
0.0
 73
     1
 44
1.0
  0
POINT
  5
1F9C
330
1D2E
100
AcDbEntity
  8
Defpoints
 62
     0
100
AcDbPoint
 10
156.260091640376
 20
251.063816128159
 30
0.0
  0
POINT
  5
1F9D
330
1D2E
100
AcDbEntity
  8
Defpoints
 62
     0
100
AcDbPoint
 10
156.260091640376
 20
179.063816128159
 30
0.0
  0
POINT
  5
1F9E
330
1D2E
100
AcDbEntity
  8
Defpoints
 62
     0
100
AcDbPoint
 10
97.76009164037599
 20
179.063816128159
 30
0.0
  0
ENDBLK
  5
1D39
330
1D2E
100
AcDbEntity
  8
0
100
AcDbBlockEnd
  0
BLOCK
  5
1F7C
330
1F72
100
AcDbEntity
  8
0
100
AcDbBlockBegin
  2
*D13
 70
     1
 10
0.0
 20
0.0
 30
0.0
  3
*D13
  1

  0
LINE
  5
1F9F
330
1F72
100
AcDbEntity
  8
AM_5
100
AcDbLine
 10
151.052499640376
 20
236.563816128159
 30
0.0
 11
115.760091640376
 21
236.563816128159
 31
0.0
  0
LINE
  5
1FA0
330
1F72
100
AcDbEntity
  8
AM_5
100
AcDbLine
 10
150.5689556403759
 20
193.563816128159
 30
0.0
 11
115.760091640376
 21
193.563816128159
 31
0.0
  0
LINE
  5
1FA1
330
1F72
100
AcDbEntity
  8
AM_5
100
AcDbLine
 10
117.760091640376
 20
230.563816128159
 30
0.0
 11
117.760091640376
 21
199.563816128159
 31
0.0
  0
SOLID
  5
1FA2
330
1F72
100
AcDbEntity
  8
AM_5
100
AcDbTrace
 10
116.760091640376
 20
230.563816128159
 30
0.0
 11
118.760091640376
 21
230.563816128159
 31
0.0
 12
117.760091640376
 22
236.563816128159
 32
0.0
 13
117.760091640376
 23
236.563816128159
 33
0.0
  0
SOLID
  5
1FA3
330
1F72
100
AcDbEntity
  8
AM_5
100
AcDbTrace
 10
116.760091640376
 20
199.563816128159
 30
0.0
 11
118.760091640376
 21
199.563816128159
 31
0.0
 12
117.760091640376
 22
193.563816128159
 32
0.0
 13
117.760091640376
 23
193.563816128159
 33
0.0
  0
MTEXT
  5
1FA4
330
1F72
100
AcDbEntity
  8
AM_5
 62
     2
100
AcDbMText
 10
111.2600916403759
 20
215.0638161281591
 30
0.0
 40
7.0
 41
0.0
 46
0.0
 71
     5
 72
     1
  1
43
 11
0.0000000000000001
 21
1.0
 31
0.0
 73
     1
 44
1.0
  0
POINT
  5
1FA5
330
1F72
100
AcDbEntity
  8
Defpoints
 62
     0
100
AcDbPoint
 10
151.052499640376
 20
236.563816128159
 30
0.0
  0
POINT
  5
1FA6
330
1F72
100
AcDbEntity
  8
Defpoints
 62
     0
100
AcDbPoint
 10
150.5689556403759
 20
193.563816128159
 30
0.0
  0
POINT
  5
1FA7
330
1F72
100
AcDbEntity
  8
Defpoints
 62
     0
100
AcDbPoint
 10
117.760091640376
 20
193.563816128159
 30
0.0
  0
ENDBLK
  5
1F7D
330
1F72
100
AcDbEntity
  8
0
100
AcDbBlockEnd
  0
BLOCK
  5
23F8
330
23F7
100
AcDbEntity
  8
0
100
AcDbBlockBegin
  2
BLK1
 70
     2
 10
0.0
 20
0.0
 30
0.0
  3
BLK1
  1

  0
ENDBLK
  5
23F9
330
23F7
100
AcDbEntity
  8
0
100
AcDbBlockEnd
  0
BLOCK
  5
23FB
330
23FA
100
AcDbEntity
  8
0
100
AcDbBlockBegin
  2
BLK2
 70
     2
 10
0.0
 20
0.0
 30
0.0
  3
BLK2
  1

  0
ENDBLK
  5
23FC
330
23FA
100
AcDbEntity
  8
0
100
AcDbBlockEnd
  0
BLOCK
  5
23FE
330
23FD
100
AcDbEntity
  8
0
100
AcDbBlockBegin
  2
BLK9
 70
     2
 10
0.0
 20
0.0
 30
0.0
  3
BLK9
  1

  0
ENDBLK
  5
23FF
330
23FD
100
AcDbEntity
  8
0
100
AcDbBlockEnd
  0
BLOCK
  5
2401
330
2400
100
AcDbEntity
  8
0
100
AcDbBlockBegin
  2
BLK10
 70
     2
 10
0.0
 20
0.0
 30
0.0
  3
BLK10
  1

  0
ENDBLK
  5
2402
330
2400
100
AcDbEntity
  8
0
100
AcDbBlockEnd
  0
BLOCK
  5
2404
330
2403
100
AcDbEntity
  8
0
100
AcDbBlockBegin
  2
BLK13
 70
     2
 10
0.0
 20
0.0
 30
0.0
  3
BLK13
  1

  0
ENDBLK
  5
2405
330
2403
100
AcDbEntity
  8
0
100
AcDbBlockEnd
  0
BLOCK
  5
2407
330
2406
100
AcDbEntity
  8
0
100
AcDbBlockBegin
  2
BLK14
 70
     2
 10
0.0
 20
0.0
 30
0.0
  3
BLK14
  1

  0
ENDBLK
  5
2408
330
2406
100
AcDbEntity
  8
0
100
AcDbBlockEnd
  0
BLOCK
  5
240A
330
2409
100
AcDbEntity
  8
0
100
AcDbBlockBegin
  2
BLK15
 70
     2
 10
0.0
 20
0.0
 30
0.0
  3
BLK15
  1

  0
ENDBLK
  5
240B
330
2409
100
AcDbEntity
  8
0
100
AcDbBlockEnd
  0
BLOCK
  5
2799
330
278D
100
AcDbEntity
  8
0
100
AcDbBlockBegin
  2
*D21
 70
     1
 10
0.0
 20
0.0
 30
0.0
  3
*D21
  1

  0
LINE
  5
2893
330
278D
100
AcDbEntity
  8
AM_5
100
AcDbLine
 10
250.7435164543624
 20
251.0638019625348
 30
0.0
 11
250.7435164543624
 21
276.0638029625348
 31
0.0
  0
LINE
  5
2894
330
278D
100
AcDbEntity
  8
AM_5
100
AcDbLine
 10
262.7435164543623
 20
248.3480128992779
 30
0.0
 11
262.7435164543623
 21
276.0638029625348
 31
0.0
  0
LINE
  5
2895
330
278D
100
AcDbEntity
  8
AM_5
100
AcDbLine
 10
268.7435164543623
 20
274.0638029625348
 30
0.0
 11
274.7435164543623
 21
274.0638029625348
 31
0.0
  0
LINE
  5
2896
330
278D
100
AcDbEntity
  8
AM_5
100
AcDbLine
 10
244.7435164543624
 20
274.0638029625348
 30
0.0
 11
226.0231030685357
 21
274.0638029625348
 31
0.0
  0
LINE
  5
2897
330
278D
100
AcDbEntity
  8
AM_5
100
AcDbLine
 10
262.7435164543623
 20
274.0638029625348
 30
0.0
 11
250.7435164543624
 21
274.0638029625348
 31
0.0
  0
SOLID
  5
2898
330
278D
100
AcDbEntity
  8
AM_5
100
AcDbTrace
 10
268.7435164543623
 20
275.0638029625349
 30
0.0
 11
268.7435164543623
 21
273.0638029625349
 31
0.0
 12
262.7435164543623
 22
274.0638029625348
 32
0.0
 13
262.7435164543623
 23
274.0638029625348
 33
0.0
  0
SOLID
  5
2899
330
278D
100
AcDbEntity
  8
AM_5
100
AcDbTrace
 10
244.7435164543624
 20
275.0638029625349
 30
0.0
 11
244.7435164543624
 21
273.0638029625349
 31
0.0
 12
250.7435164543624
 22
274.0638029625348
 32
0.0
 13
250.7435164543624
 23
274.0638029625348
 33
0.0
  0
MTEXT
  5
289A
330
278D
100
AcDbEntity
  8
AM_5
 62
     2
100
AcDbMText
 10
232.383309761449
 20
280.5644919389128
 30
0.0
 40
7.0
 41
0.0
 46
0.0
 71
     5
 72
     1
  1
12
 73
     1
 44
1.0
  0
POINT
  5
289B
330
278D
100
AcDbEntity
  8
Defpoints
 62
     0
100
AcDbPoint
 10
250.7435164543624
 20
251.0638019625348
 30
0.0
  0
POINT
  5
289C
330
278D
100
AcDbEntity
  8
Defpoints
 62
     0
100
AcDbPoint
 10
262.7435164543623
 20
248.3480128992779
 30
0.0
  0
POINT
  5
289D
330
278D
100
AcDbEntity
  8
Defpoints
 62
     0
100
AcDbPoint
 10
262.7435164543623
 20
274.0638029625348
 30
0.0
  0
ENDBLK
  5
279A
330
278D
100
AcDbEntity
  8
0
100
AcDbBlockEnd
  0
BLOCK
  5
2FB4
330
2FAA
100
AcDbEntity
  8
0
100
AcDbBlockBegin
  2
*D22
 70
     1
 10
0.0
 20
0.0
 30
0.0
  3
*D22
  1

  0
LINE
  5
3192
330
2FAA
100
AcDbEntity
  8
AM_5
100
AcDbLine
 10
262.7435164543625
 20
226.0638059625348
 30
0.0
 11
298.0145575076809
 21
226.0638059625348
 31
0.0
  0
LINE
  5
3193
330
2FAA
100
AcDbEntity
  8
AM_5
100
AcDbLine
 10
262.7435164543625
 20
204.0638019625348
 30
0.0
 11
298.0145575076809
 21
204.0638019625348
 31
0.0
  0
LINE
  5
3194
330
2FAA
100
AcDbEntity
  8
AM_5
100
AcDbLine
 10
296.0145575076809
 20
210.0638019625348
 30
0.0
 11
296.0145575076809
 21
220.0638059625348
 31
0.0
  0
LINE
  5
3195
330
2FAA
100
AcDbEntity
  8
AM_5
100
AcDbLine
 10
296.0145575076809
 20
226.0638059625348
 30
0.0
 11
296.0145575076809
 21
252.4842193483616
 31
0.0
  0
SOLID
  5
3196
330
2FAA
100
AcDbEntity
  8
AM_5
100
AcDbTrace
 10
295.0145575076809
 20
210.0638019625348
 30
0.0
 11
297.0145575076809
 21
210.0638019625348
 31
0.0
 12
296.0145575076809
 22
204.0638019625348
 32
0.0
 13
296.0145575076809
 23
204.0638019625348
 33
0.0
  0
SOLID
  5
3197
330
2FAA
100
AcDbEntity
  8
AM_5
100
AcDbTrace
 10
295.0145575076809
 20
220.0638059625348
 30
0.0
 11
297.0145575076809
 21
220.0638059625348
 31
0.0
 12
296.0145575076809
 22
226.0638059625348
 32
0.0
 13
296.0145575076809
 23
226.0638059625348
 33
0.0
  0
MTEXT
  5
3198
330
2FAA
100
AcDbEntity
  8
AM_5
 62
     2
100
AcDbMText
 10
289.5138685313029
 20
242.2740126554482
 30
0.0
 40
7.0
 41
0.0
 46
0.0
 71
     5
 72
     1
  1
%%c22
 11
0.0000000000000001
 21
1.0
 31
0.0
 73
     1
 44
1.0
  0
POINT
  5
3199
330
2FAA
100
AcDbEntity
  8
Defpoints
 62
     0
100
AcDbPoint
 10
262.7435164543625
 20
226.0638059625348
 30
0.0
  0
POINT
  5
319A
330
2FAA
100
AcDbEntity
  8
Defpoints
 62
     0
100
AcDbPoint
 10
262.7435164543625
 20
204.0638019625348
 30
0.0
  0
POINT
  5
319B
330
2FAA
100
AcDbEntity
  8
Defpoints
 62
     0
100
AcDbPoint
 10
296.0145575076809
 20
204.0638019625348
 30
0.0
  0
ENDBLK
  5
2FB5
330
2FAA
100
AcDbEntity
  8
0
100
AcDbBlockEnd
  0
BLOCK
  5
2FC0
330
2FB6
100
AcDbEntity
  8
0
100
AcDbBlockBegin
  2
*D23
 70
     1
 10
0.0
 20
0.0
 30
0.0
  3
*D23
  1

  0
LINE
  5
3115
330
2FB6
100
AcDbEntity
  8
AM_5
100
AcDbLine
 10
262.7435164543625
 20
226.0638059625348
 30
0.0
 11
262.7435164543625
 21
276.0638029625348
 31
0.0
  0
LINE
  5
3116
330
2FB6
100
AcDbEntity
  8
AM_5
100
AcDbLine
 10
317.7435274543626
 20
226.0638059625348
 30
0.0
 11
317.7435274543626
 21
276.0638029625348
 31
0.0
  0
LINE
  5
3117
330
2FB6
100
AcDbEntity
  8
AM_5
100
AcDbLine
 10
268.7435164543625
 20
274.0638029625348
 30
0.0
 11
311.7435274543626
 21
274.0638029625348
 31
0.0
  0
SOLID
  5
3118
330
2FB6
100
AcDbEntity
  8
AM_5
100
AcDbTrace
 10
268.7435164543625
 20
275.0638029625349
 30
0.0
 11
268.7435164543625
 21
273.0638029625349
 31
0.0
 12
262.7435164543625
 22
274.0638029625348
 32
0.0
 13
262.7435164543625
 23
274.0638029625348
 33
0.0
  0
SOLID
  5
3119
330
2FB6
100
AcDbEntity
  8
AM_5
100
AcDbTrace
 10
311.7435274543626
 20
275.0638029625349
 30
0.0
 11
311.7435274543626
 21
273.0638029625349
 31
0.0
 12
317.7435274543626
 22
274.0638029625348
 32
0.0
 13
317.7435274543626
 23
274.0638029625348
 33
0.0
  0
MTEXT
  5
311A
330
2FB6
100
AcDbEntity
  8
AM_5
 62
     2
100
AcDbMText
 10
290.2435219543626
 20
280.5638029625349
 30
0.0
 40
7.0
 41
0.0
 46
0.0
 71
     5
 72
     1
  1
55
 73
     1
 44
1.0
  0
POINT
  5
311B
330
2FB6
100
AcDbEntity
  8
Defpoints
 62
     0
100
AcDbPoint
 10
262.7435164543625
 20
226.0638059625348
 30
0.0
  0
POINT
  5
311C
330
2FB6
100
AcDbEntity
  8
Defpoints
 62
     0
100
AcDbPoint
 10
317.7435274543626
 20
226.0638059625348
 30
0.0
  0
POINT
  5
311D
330
2FB6
100
AcDbEntity
  8
Defpoints
 62
     0
100
AcDbPoint
 10
317.7435274543626
 20
274.0638029625348
 30
0.0
  0
ENDBLK
  5
2FC1
330
2FB6
100
AcDbEntity
  8
0
100
AcDbBlockEnd
  0
BLOCK
  5
2FCC
330
2FC2
100
AcDbEntity
  8
0
100
AcDbBlockBegin
  2
*D24
 70
     1
 10
0.0
 20
0.0
 30
0.0
  3
*D24
  1

  0
LINE
  5
319C
330
2FC2
100
AcDbEntity
  8
AM_5
100
AcDbLine
 10
317.7435274543626
 20
226.0638059625348
 30
0.0
 11
343.4063857623822
 21
226.0638059625348
 31
0.0
  0
LINE
  5
319D
330
2FC2
100
AcDbEntity
  8
AM_5
100
AcDbLine
 10
299.7435151770762
 20
96.06378996253852
 30
0.0
 11
343.4063857623821
 21
96.06378996253852
 31
0.0
  0
LINE
  5
319E
330
2FC2
100
AcDbEntity
  8
AM_5
100
AcDbLine
 10
341.4063857623822
 20
220.0638059625348
 30
0.0
 11
341.4063857623821
 21
102.0637899625385
 31
0.0
  0
SOLID
  5
319F
330
2FC2
100
AcDbEntity
  8
AM_5
100
AcDbTrace
 10
340.4063857623822
 20
220.0638059625348
 30
0.0
 11
342.4063857623822
 21
220.0638059625348
 31
0.0
 12
341.4063857623822
 22
226.0638059625348
 32
0.0
 13
341.4063857623822
 23
226.0638059625348
 33
0.0
  0
SOLID
  5
31A0
330
2FC2
100
AcDbEntity
  8
AM_5
100
AcDbTrace
 10
340.4063857623821
 20
102.0637899625385
 30
0.0
 11
342.4063857623821
 21
102.0637899625385
 31
0.0
 12
341.4063857623821
 22
96.06378996253852
 32
0.0
 13
341.4063857623821
 23
96.06378996253852
 33
0.0
  0
MTEXT
  5
31A1
330
2FC2
100
AcDbEntity
  8
AM_5
 62
     2
100
AcDbMText
 10
334.9063857623821
 20
163.2315976056112
 30
0.0
 40
7.0
 41
0.0
 46
0.0
 71
     5
 72
     1
  1
130
 11
0.0000000000000001
 21
1.0
 31
0.0
 73
     1
 44
1.0
  0
POINT
  5
31A2
330
2FC2
100
AcDbEntity
  8
Defpoints
 62
     0
100
AcDbPoint
 10
317.7435274543626
 20
226.0638059625348
 30
0.0
  0
POINT
  5
31A3
330
2FC2
100
AcDbEntity
  8
Defpoints
 62
     0
100
AcDbPoint
 10
299.7435151770762
 20
96.06378996253852
 30
0.0
  0
POINT
  5
31A4
330
2FC2
100
AcDbEntity
  8
Defpoints
 62
     0
100
AcDbPoint
 10
341.4063857623821
 20
96.06378996253852
 30
0.0
  0
ENDBLK
  5
2FCD
330
2FC2
100
AcDbEntity
  8
0
100
AcDbBlockEnd
  0
ENDSEC
  0
SECTION
  2
ENTITIES
  0
INSERT
  5
3FB
330
1A
100
AcDbEntity
  8
ASHADE
 62
     1
100
AcDbBlockReference
  2
AVE_RENDER
 10
0.0
 20
0.0
 30
0.0
1001
AVE_RENDER
1002
{
1070
     7
1000
Pref
1070
    60
1070
    30
1070
     1
1070
     0
1000

1070
    10
1070
     1
1070
    10
1040
1.0
1070
     1
1040
0.3
1040
0.7
1040
0.0
1040
10.0
1010
-1.0
1020
-1.0
1030
-1.0
1040
0.3
1070
    49
1070
     1
1070
     0
1010
1.0
1020
1.0
1030
1.0
1040
45.0
1070
     1
1070
     0
1000
WCS
1040
0.0
1070
     1
1040
10.0
1002
}
  0
INSERT
  5
3FC
330
1A
100
AcDbEntity
  8
ASHADE
 62
     3
100
AcDbBlockReference
  2
AVE_RENDER
 10
0.0
 20
0.0
 30
0.0
1001
AVE_RENDER
1002
{
1070
     0
1000
Full Opt
1070
     0
1070
     1
1070
     1
1070
     1
1070
     0
1070
     0
1070
     0
1070
     1
1070
     1
1040
0.0001
1040
0.0001
1002
}
  0
INSERT
  5
3FD
330
1A
100
AcDbEntity
  8
ASHADE
 62
     4
100
AcDbBlockReference
  2
AVE_RENDER
 10
0.0
 20
0.0
 30
0.0
1001
AVE_RENDER
1002
{
1070
     0
1000
Quick Opt
1070
     0
1070
     1
1070
     1
1070
     1
1070
     0
1070
     0
1070
     1
1002
}
  0
INSERT
  5
3FE
330
1A
100
AcDbEntity
  8
ASHADE
 62
     5
100
AcDbBlockReference
  2
AVE_RENDER
 10
0.0
 20
0.0
 30
0.0
1001
AVE_RENDER
1002
{
1070
     1
1000
Scanl Opt
1070
     2
1070
     0
1070
     2
1040
2.0
1040
4.0
1070
     0
1070
     1
1070
     0
1040
0.03
1002
}
  0
INSERT
  5
3FF
330
1A
100
AcDbEntity
  8
ASHADE
 62
     6
100
AcDbBlockReference
  2
AVE_RENDER
 10
0.0
 20
0.0
 30
0.0
1001
AVE_RENDER
1002
{
1070
     2
1000
Raytr Opt
1070
     3
1070
     0
1070
     2
1040
2.0
1040
4.0
1070
     0
1070
     1
1070
     1
1040
0.03
1070
     3
1040
0.03
1002
}
  0
INSERT
  5
400
330
1A
100
AcDbEntity
  8
ASHADE
 62
     7
100
AcDbBlockReference
  2
AVE_RENDER
 10
0.0
 20
0.0
 30
0.0
1001
AVE_RENDER
1002
{
1070
     0
1000
RFile Opt
1070
     5
1070
  1600
1070
  1280
1070
 10000
1070
     1
1070
    32
1070
    32
1070
     0
1070
     0
1070
     0
1070
     0
1070
     0
1070
     0
1070
     0
1002
}
  0
INSERT
  5
401
330
1A
100
AcDbEntity
  8
ASHADE
 62
     8
100
AcDbBlockReference
  2
AVE_RENDER
 10
0.0
 20
0.0
 30
0.0
1001
AVE_RENDER
1002
{
1070
     0
1000
Fog Opt
1070
     0
1070
     0
1040
0.0
1040
1.0
1040
0.0
1040
1.0
1010
0.5
1020
0.5
1030
0.5
1002
}
  0
INSERT
  5
402
330
1A
100
AcDbEntity
  8
ASHADE
 62
     9
100
AcDbBlockReference
  2
AVE_RENDER
 10
0.0
 20
0.0
 30
0.0
1001
AVE_RENDER
1002
{
1070
     0
1000
BG Opt
1070
     0
1070
     0
1010
1.0
1020
1.0
1030
1.0
1010
1.0
1020
0.0
1030
0.0
1010
0.0
1020
1.0
1030
0.0
1010
0.0
1020
0.0
1030
1.0
1040
0.5
1040
0.33
1040
0.0
1000

1070
     1
1000

1070
     1
1070
     1
1040
1.0
1040
1.0
1040
0.0
1040
0.0
1070
     0
1002
}
  0
INSERT
  5
409
330
1A
100
AcDbEntity
  8
ASHADE
 62
     1
100
AcDbBlockReference
  2
AVE_GLOBAL
 10
0.0
 20
0.0
 30
0.0
1001
AVE_MATERIAL
1002
{
1000
*GLOBAL*
1000
2
1000
Globales Material.
1002
{
1002
}
1002
{
1070
    63
1002
{
1002
{
1010
-1.0
1020
-1.0
1030
-1.0
1002
}
1040
0.1000000014901161
1000

1040
0.0
1002
{
1002
}
1040
0.0
1002
{
1002
}
1040
0.0
1002
}
1002
{
1002
{
1010
-1.0
1020
-1.0
1030
-1.0
1002
}
1040
0.6999999880790711
1000

1040
0.0
1002
{
1002
}
1040
0.0
1002
{
1002
}
1040
0.0
1002
}
1002
{
1002
{
1010
-1.0
1020
-1.0
1030
-1.0
1002
}
1040
0.2000000029802322
1000

1040
0.0
1002
{
1002
}
1040
0.0
1002
{
1002
}
1040
0.0
1002
}
1002
{
1070
     0
1002
{
1070
     1
1002
{
1040
1.0
1040
1.0
1000

1040
0.0
1002
{
1002
}
1040
0.0
1002
{
1002
}
1040
0.0
1002
}
1002
}
1040
1.0
1040
0.0
1040
0.0
1002
}
1002
{
1040
1.0
1040
1.0
1000

1040
0.0
1002
{
1002
}
1040
0.0
1002
{
1002
}
1040
0.0
1002
}
1002
{
1040
0.5
1040
1.0
1000

1040
0.0
1002
{
1002
}
1040
0.0
1002
{
1002
}
1040
0.0
1002
}
1002
{
1070
     0
1040
0.0
1002
{
1002
}
1040
1.0
1002
{
1002
}
1040
0.0
1002
}
1002
{
1040
0.0
1002
{
1002
{
1010
0.0
1020
0.0
1030
0.0
1002
}
1040
1.0
1000

1040
0.0
1002
{
1002
}
1040
0.0
1002
{
1002
}
1040
0.0
1002
}
1002
}
1002
{
1002
{
1070
     1
1002
{
1040
0.0
1040
1.0
1000

1040
0.0
1002
{
1002
}
1040
0.0
1002
{
1002
}
1040
0.0
1002
}
1002
}
1040
0.0
1002
{
1002
}
1010
1.0
1020
0.0
1030
0.0
1010
0.0
1020
1.0
1030
0.0
1010
0.0
1020
0.0
1030
1.0
1070
     0
1002
}
1002
{
1002
{
1040
1.0
1040
1.0
1002
{
1070
     1
1002
{
1040
1.0
1040
1.0
1000

1040
0.0
1002
{
1002
}
1040
0.0
1002
{
1002
}
1040
0.0
1002
}
1002
}
1002
}
1070
     0
1040
0.0
1002
{
1002
}
1002
}
1002
{
1002
}
1002
}
1002
{
1071
        3
1070
     3
1070
     0
1002
{
1070
     2
1070
     0
1070
     0
1040
0.0
1002
}
1070
     0
1070
     2
1002
{
1002
}
1002
}
1002
{
1040
8030.0
1040
190.3000030517578
1040
0.3050000071525574
1040
228.0
1040
545.0
1040
14.0
1040
17.39999961853027
1040
0.4560000002384186
1002
}
1002
}
  0
POINT
  5
1677
330
1A
100
AcDbEntity
  8
0
 60
     1
100
AcDbPoint
 10
0.0
 20
0.0
 30
0.0
1001
GENIUS_GENODEF_13
1002
{
1000
HIER
1070
     1
1002
}
1002
{
1000
MANEDIT
1070
     0
1002
}
1002
{
1000
NOSEL
1070
     0
1002
}
1002
{
1000
BEHIND
1070
     0
1002
}
1002
{
1000
REACTOR
1002
}
1001
GENIUS_GENOBJ-N-SDF_13
1002
{
1000
OWNER
1000
GEN
1002
}
1001
GENIUS_GENOENT_13
1002
{
1000
MYREF
1005
1677
1002
}
1002
{
1000
GRP
1005
0
1002
}
1001
GENIUS_GENOLIS_13
1002
{
1000
ENT
1005
22
1002
}
  0
ARC
  5
1A8D
330
1A
100
AcDbEntity
  8
0
100
AcDbCircle
 10
156.260091640376
 20
236.563816128159
 30
0.0
 40
14.5
100
AcDbArc
 50
0.0
 51
180.0
  0
LINE
  5
1A92
330
1A
100
AcDbEntity
  8
0
100
AcDbLine
 10
141.760091640376
 20
236.563816128159
 30
0.0
 11
141.760091640376
 21
193.563816128159
 31
0.0
  0
ARC
  5
1A93
330
1A
100
AcDbEntity
  8
0
100
AcDbCircle
 10
156.260091640376
 20
193.563816128159
 30
0.0
 40
14.5
100
AcDbArc
 50
180.0000000000001
 51
220.6572364448367
  0
LINE
  5
1A96
330
1A
100
AcDbEntity
  8
0
100
AcDbLine
 10
170.760091640376
 20
236.563816128159
 30
0.0
 11
170.760091640376
 21
193.563816128159
 31
0.0
  0
LWPOLYLINE
  5
1BEB
330
1A
100
AcDbEntity
  8
AM_VIEWS
100
AcDbPolyline
 90
        4
 70
     1
 43
0.0
 10
98.23972467924058
 20
20.02823452003633
 10
312.1338174026675
 20
20.02823452003633
 10
312.1338174026675
 20
288.4504763811305
 10
98.23972467924058
 20
288.4504763811305
1001
GENIUS_GENSCREG_15
1040
2.0
1040
1.0
1011
98.23972467924058
1021
20.02823452003633
1031
0.0
1011
312.1338174026675
1021
288.4504763811305
1031
0.0
1070
     2
1001
GENIUS_GENODEF_13
1002
{
1000
HIER
1070
     0
1002
}
1002
{
1000
MANEDIT
1070
     0
1002
}
1002
{
1000
NOSEL
1070
     0
1002
}
1002
{
1000
BEHIND
1070
     0
1002
}
1002
{
1000
OTHER
1070
     0
1002
}
1002
{
1000
REACTOR
1002
}
1001
GENIUS_GENOBJ-N-SDF_13
1002
{
1000
OWNER
1000
GEN
1002
}
  0
DIMENSION
  5
1CD3
330
1A
100
AcDbEntity
  8
AM_5
100
AcDbDimension
  2
*D11
 10
170.760091640376
 20
274.0638029625348
 30
0.0
 11
156.260091640376
 21
280.5644919389128
 31
0.0
 70
    32
 71
     5
 42
29.0
 73
     0
 74
     0
 75
     0
  3
AM_ISO
100
AcDbAlignedDimension
 13
141.760091640376
 23
236.563816128159
 33
0.0
 14
170.760091640376
 24
236.563816128159
 34
0.0
100
AcDbRotatedDimension
1001
ACAD
1000
DSTYLE
1002
{
1070
    40
1040
2.0
1002
}
  0
DIMENSION
  5
1D2D
330
1A
100
AcDbEntity
  8
AM_5
100
AcDbDimension
  2
*D12
 10
97.76009164037599
 20
179.063816128159
 30
0.0
 11
91.25940266399799
 21
215.0638161281591
 31
0.0
 70
    32
 71
     5
 42
71.99999999999994
 73
     0
 74
     0
 75
     0
  3
AM_ISO
100
AcDbAlignedDimension
 13
156.260091640376
 23
251.063816128159
 33
0.0
 14
156.260091640376
 24
179.063816128159
 34
0.0
 50
90.0
100
AcDbRotatedDimension
1001
ACAD
1000
DSTYLE
1002
{
1070
    40
1040
2.0
1002
}
  0
TEXT
  5
1F4F
330
1A
100
AcDbEntity
  8
AM_6
100
AcDbText
 10
206.796136704586
 20
66.60355772368291
 30
0.0
 40
7.0
  1
5088-5616 CF
100
AcDbText
1001
GENIUS_AMGTXT_16
1040
3.5
1040
0.12
  0
LINE
  5
1F6D
330
1A
100
AcDbEntity
  8
7
  6
GEN7A
100
AcDbLine
 10
151.052499640376
 20
236.563816128159
 30
0.0
 11
162.175053640376
 21
236.563816128159
 31
0.0
  0
LINE
  5
1F6F
330
1A
100
AcDbEntity
  8
7
  6
GEN7A
100
AcDbLine
 10
150.5689556403759
 20
193.563816128159
 30
0.0
 11
161.691473640376
 21
193.563816128159
 31
0.0
  0
DIMENSION
  5
1F71
330
1A
100
AcDbEntity
  8
AM_5
100
AcDbDimension
  2
*D13
 10
117.760091640376
 20
193.563816128159
 30
0.0
 11
111.2600916403759
 21
215.0638161281591
 31
0.0
 70
    32
 71
     5
 42
43.00000000000006
 73
     0
 74
     0
 75
     0
  3
AM_ISO
100
AcDbAlignedDimension
 13
151.052499640376
 23
236.563816128159
 33
0.0
 14
150.5689556403759
 24
193.563816128159
 34
0.0
 50
90.0
100
AcDbRotatedDimension
1001
ACAD
1000
DSTYLE
1002
{
1070
    40
1040
2.0
1002
}
  0
ARC
  5
224A
330
1A
100
AcDbEntity
  8
AM_3
  6
AM_ISO02W050x2
100
AcDbCircle
 10
156.260091640376
 20
193.563816128159
 30
0.0
 40
14.49999999999997
100
AcDbArc
 50
220.6572364448365
 51
319.3427391688441
  0
ARC
  5
224B
330
1A
100
AcDbEntity
  8
0
100
AcDbCircle
 10
156.2600916403759
 20
193.563816128159
 30
0.0
 40
14.50000000000001
100
AcDbArc
 50
319.3427391688441
 51
359.9999999999999
  0
CIRCLE
  5
2273
330
1A
100
AcDbEntity
  8
AM_3
  6
AM_ISO02W050x2
100
AcDbCircle
 10
156.260091640376
 20
236.563816128159
 30
0.0
 40
4.75
  0
CIRCLE
  5
2274
330
1A
100
AcDbEntity
  8
AM_3
  6
AM_ISO02W050x2
100
AcDbCircle
 10
156.260091640376
 20
193.563816128159
 30
0.0
 40
4.75
  0
LINE
  5
2275
330
1A
100
AcDbEntity
  8
AM_0
100
AcDbLine
 10
245.7435164543625
 20
198.3138019625347
 30
0.0
 11
245.7435164543625
 21
188.8138019625348
 31
0.0
  0
LINE
  5
2276
330
1A
100
AcDbEntity
  8
AM_0
100
AcDbLine
 10
262.7435164543626
 20
180.0638019625347
 30
0.0
 11
262.7435164543624
 21
250.0638019625348
 31
0.0
  0
LINE
  5
2277
330
1A
100
AcDbEntity
  8
AM_0
100
AcDbLine
 10
250.7435164543624
 20
251.0638019625348
 30
0.0
 11
250.7435164543625
 21
179.0638019625347
 31
0.0
  0
LINE
  5
2278
330
1A
100
AcDbEntity
  8
AM_0
100
AcDbLine
 10
250.7435164543625
 20
179.0638019625347
 30
0.0
 11
261.7435164543626
 21
179.0638019625347
 31
0.0
  0
LINE
  5
2279
330
1A
100
AcDbEntity
  8
AM_0
100
AcDbLine
 10
250.7435164543625
 20
188.8138019625347
 30
0.0
 11
245.7435164543625
 21
188.8138019625348
 31
0.0
  0
ARC
  5
227A
330
1A
100
AcDbEntity
  8
AM_0
100
AcDbCircle
 10
261.7435164543626
 20
180.0638019625347
 30
0.0
 40
1.0
100
AcDbArc
 50
270.0
 51
0.0
1001
GENIUS_GENOBJ-N-FIL_13
1002
{
1000
OWNER
1000
GEN
1002
}
1001
GENIUS_GENODEF_13
1002
{
1000
HIER
1070
     0
1002
}
1002
{
1000
MANEDIT
1070
     0
1002
}
1002
{
1000
NOSEL
1070
     0
1002
}
1002
{
1000
BEHIND
1070
     0
1002
}
1002
{
1000
OTHER
1070
     0
1002
}
1002
{
1000
REACTOR
1002
}
  0
LINE
  5
227B
330
1A
100
AcDbEntity
  8
AM_0
100
AcDbLine
 10
245.7435164543625
 20
231.8138019625348
 30
0.0
 11
245.7435164543625
 21
241.3138019625348
 31
0.0
  0
LINE
  5
227E
330
1A
100
AcDbEntity
  8
AM_0
100
AcDbLine
 10
245.7435164543625
 20
198.3138019625347
 30
0.0
 11
250.7435164543625
 21
198.3138019625347
 31
0.0
  0
LINE
  5
227F
330
1A
100
AcDbEntity
  8
AM_0
100
AcDbLine
 10
245.7435164543625
 20
231.8138019625348
 30
0.0
 11
250.7435164543625
 21
231.8138019625348
 31
0.0
  0
LINE
  5
2280
330
1A
100
AcDbEntity
  8
AM_0
100
AcDbLine
 10
261.7435164543624
 20
251.0638019625348
 30
0.0
 11
250.7435164543624
 21
251.0638019625348
 31
0.0
  0
LINE
  5
2281
330
1A
100
AcDbEntity
  8
AM_0
100
AcDbLine
 10
250.7435164543625
 20
241.3138019625348
 30
0.0
 11
245.7435164543625
 21
241.3138019625348
 31
0.0
  0
ARC
  5
2282
330
1A
100
AcDbEntity
  8
AM_0
100
AcDbCircle
 10
261.7435164543624
 20
250.0638019625348
 30
0.0
 40
1.0
100
AcDbArc
 50
0.0
 51
90.0
1001
GENIUS_GENOBJ-N-FIL_13
1002
{
1000
OWNER
1000
GEN
1002
}
1001
GENIUS_GENODEF_13
1002
{
1000
HIER
1070
     0
1002
}
1002
{
1000
MANEDIT
1070
     0
1002
}
1002
{
1000
NOSEL
1070
     0
1002
}
1002
{
1000
BEHIND
1070
     0
1002
}
1002
{
1000
OTHER
1070
     0
1002
}
1002
{
1000
REACTOR
1002
}
  0
LWPOLYLINE
  5
2393
330
1A
100
AcDbEntity
  8
AM_0
100
AcDbPolyline
 90
        4
 70
     1
 43
0.0
 10
218.7435164543625
 20
211.5638019625348
 10
250.7435164543625
 20
211.5638019625348
 10
250.7435164543625
 20
218.5638019625348
 10
218.7435164543625
 20
218.5638019625348
1001
GENIUS_GENREC_14
1002
{
1000
PYDIR
1011
218.7435164543625
1021
218.5638019625348
1031
0.0
1002
}
1002
{
1000
PXDIR
1011
250.7435164543625
1021
211.5638019625348
1031
0.0
1002
}
1002
{
1000
PORI
1011
218.7435164543625
1021
211.5638019625348
1031
0.0
1002
}
1002
{
1000
PINS
1011
218.7435164543625
1021
211.5638019625348
1031
0.0
1002
}
1002
{
1000
HVAL
1000
7
1002
}
1002
{
1000
H
1070
     2
1002
}
1002
{
1000
WVAL
1000
32
1002
}
1002
{
1000
W
1070
     2
1002
}
1002
{
1000
C
1070
     1
1002
}
1001
GENIUS_GENODEF_13
1002
{
1000
HIER
1070
     0
1002
}
1002
{
1000
MANEDIT
1070
     0
1002
}
1002
{
1000
NOSEL
1070
     0
1002
}
1002
{
1000
BEHIND
1070
     0
1002
}
1002
{
1000
OTHER
1070
     0
1002
}
1002
{
1000
REACTOR
1002
}
1001
GENIUS_GENOBJ-N-REC_13
1002
{
1000
OWNER
1000
GEN
1002
}
  0
INSERT
  5
247C
330
1A
100
AcDbEntity
  8
5
 62
     3
100
AcDbBlockReference
  2
BLK1
 10
488.7975270517957
 20
241.4627829489701
 30
0.0
  0
INSERT
  5
247D
330
1A
100
AcDbEntity
  8
5
 62
     3
100
AcDbBlockReference
  2
BLK2
 10
488.7975270517957
 20
241.4627829489701
 30
0.0
  0
INSERT
  5
247E
330
1A
100
AcDbEntity
  8
5
 62
     3
100
AcDbBlockReference
  2
BLK9
 10
488.7975270517957
 20
241.4627829489701
 30
0.0
  0
INSERT
  5
247F
330
1A
100
AcDbEntity
  8
5
 62
     3
100
AcDbBlockReference
  2
BLK10
 10
488.7975270517957
 20
241.4627829489701
 30
0.0
  0
INSERT
  5
2480
330
1A
100
AcDbEntity
  8
5
 62
     3
100
AcDbBlockReference
  2
BLK13
 10
488.7975270517957
 20
241.4627829489701
 30
0.0
  0
INSERT
  5
2481
330
1A
100
AcDbEntity
  8
5
 62
     3
100
AcDbBlockReference
  2
BLK14
 10
488.7975270517957
 20
241.4627829489701
 30
0.0
  0
INSERT
  5
2482
330
1A
100
AcDbEntity
  8
5
 62
     3
100
AcDbBlockReference
  2
BLK15
 10
488.7975270517957
 20
241.4627829489701
 30
0.0
  0
DIMENSION
  5
278C
330
1A
100
AcDbEntity
  8
AM_5
100
AcDbDimension
  2
*D21
 10
262.7435164543623
 20
274.0638029625348
 30
0.0
 11
232.383309761449
 21
274.0638029625348
 31
0.0
 70
   160
 71
     5
 42
11.99999999999994
 73
     0
 74
     0
 75
     0
  3
AM_ISO$0
100
AcDbAlignedDimension
 13
250.7435164543624
 23
251.0638019625348
 33
0.0
 14
262.7435164543623
 24
248.3480128992779
 34
0.0
100
AcDbRotatedDimension
1001
ACAD
1000
DSTYLE
1002
{
1070
    40
1040
2.0
1002
}
  0
LINE
  5
28D0
330
1A
100
AcDbEntity
  8
AM_7
  6
AM_ISO08W050x2
100
AcDbLine
 10
240.1435164543625
 20
236.5638019625348
 30
0.0
 11
268.3435164543624
 21
236.5638019625349
 31
0.0
1001
GENIUS_GENODEF_13
1002
{
1000
HIER
1070
     0
1002
}
1002
{
1000
MANEDIT
1070
     0
1002
}
1002
{
1000
NOSEL
1070
     0
1002
}
1002
{
1000
BEHIND
1070
     0
1002
}
1002
{
1000
OTHER
1070
     0
1002
}
1002
{
1000
REACTOR
1002
}
1001
GENIUS_GENOBJ-N-CEN_13
1002
{
1000
OWNER
1000
GEN
1002
}
1001
GENIUS_GENCEN_19
1002
{
1040
5.599999999999999
1002
}
  0
LINE
  5
28D2
330
1A
100
AcDbEntity
  8
AM_7
  6
AM_ISO08W050x2
100
AcDbLine
 10
240.1435164543625
 20
193.5638019625348
 30
0.0
 11
268.3435164543626
 21
193.5638019625348
 31
0.0
1001
GENIUS_GENODEF_13
1002
{
1000
HIER
1070
     0
1002
}
1002
{
1000
MANEDIT
1070
     0
1002
}
1002
{
1000
NOSEL
1070
     0
1002
}
1002
{
1000
BEHIND
1070
     0
1002
}
1002
{
1000
OTHER
1070
     0
1002
}
1002
{
1000
REACTOR
1002
}
1001
GENIUS_GENOBJ-N-CEN_13
1002
{
1000
OWNER
1000
GEN
1002
}
1001
GENIUS_GENCEN_19
1002
{
1040
5.599999999999999
1002
}
  0
LINE
  5
297B
330
1A
100
AcDbEntity
  8
AM_7
100
AcDbLine
 10
156.2600919531158
 20
256.663816128159
 30
0.0
 11
156.260082908788
 21
94.71377812815903
 31
0.0
1001
GENIUS_GENODEF_13
1002
{
1000
HIER
1070
     0
1002
}
1002
{
1000
MANEDIT
1070
     0
1002
}
1002
{
1000
NOSEL
1070
     0
1002
}
1002
{
1000
BEHIND
1070
     0
1002
}
1002
{
1000
OTHER
1070
     0
1002
}
1002
{
1000
REACTOR
1002
}
1001
GENIUS_GENOBJ-N-CEN_13
1002
{
1000
OWNER
1000
GEN
1002
}
1001
GENIUS_GENCEN_19
1002
{
1040
5.599999999999999
1002
}
  0
LINE
  5
297C
330
1A
100
AcDbEntity
  8
AM_7
  6
AM_ISO08W050x2
100
AcDbLine
 10
136.160091640376
 20
215.063816128159
 30
0.0
 11
176.360091640376
 21
215.063816128159
 31
0.0
1001
GENIUS_GENODEF_13
1002
{
1000
HIER
1070
     0
1002
}
1002
{
1000
MANEDIT
1070
     0
1002
}
1002
{
1000
NOSEL
1070
     0
1002
}
1002
{
1000
BEHIND
1070
     0
1002
}
1002
{
1000
OTHER
1070
     0
1002
}
1002
{
1000
REACTOR
1002
}
1001
GENIUS_GENOBJ-N-CEN_13
1002
{
1000
OWNER
1000
GEN
1002
}
1001
GENIUS_GENCEN_19
1002
{
1040
5.599999999999999
1002
}
  0
LINE
  5
2F87
330
1A
100
AcDbEntity
  8
AM_0
100
AcDbLine
 10
317.7435124543626
 20
121.9338389625349
 30
0.0
 11
317.7435124543625
 21
226.0637979625349
 31
0.0
  0
LINE
  5
2F88
330
1A
100
AcDbEntity
  8
AM_0
100
AcDbLine
 10
311.7435124543626
 20
121.9338539625348
 30
0.0
 11
311.7435124543626
 21
214.7623569625349
 31
0.0
  0
LINE
  5
2F89
330
1A
100
AcDbEntity
  8
AM_0
100
AcDbLine
 10
305.7435124543626
 20
121.1921239625349
 30
0.0
 11
305.7435124543625
 21
204.0637999625348
 31
0.0
  0
LINE
  5
2F8A
330
1A
100
AcDbEntity
  8
AM_0
100
AcDbLine
 10
262.7435164543625
 20
204.0638019625348
 30
0.0
 11
262.7435164543625
 21
226.0638059625348
 31
0.0
  0
LINE
  5
2F8B
330
1A
100
AcDbEntity
  8
AM_0
100
AcDbLine
 10
317.7435274543626
 20
226.0638059625348
 30
0.0
 11
262.7435164543625
 21
226.0638059625348
 31
0.0
  0
LINE
  5
2F8C
330
1A
100
AcDbEntity
  8
AM_0
100
AcDbLine
 10
305.7435124543625
 20
204.0638019625348
 30
0.0
 11
262.7435164543625
 21
204.0638019625348
 31
0.0
  0
LINE
  5
2F8D
330
1A
100
AcDbEntity
  8
AM_7
  6
AM_ISO08W050x2
100
AcDbLine
 10
323.0902684543626
 20
215.0638019625349
 30
0.0
 11
255.8632894543626
 21
215.0638019625348
 31
0.0
  0
LINE
  5
2F8E
330
1A
100
AcDbEntity
  8
0
  6
CONTINU
 62
     3
100
AcDbLine
 10
311.7435124543626
 20
214.7623569625349
 30
0.0
 11
305.7435124543625
 21
204.0637999625348
 31
0.0
  0
LINE
  5
2F92
330
1A
100
AcDbEntity
  8
AM_0
100
AcDbLine
 10
307.6430104543626
 20
112.0343559625348
 30
0.0
 11
295.8077134543627
 21
100.1990749625347
 31
0.0
  0
ARC
  5
2F93
330
1A
100
AcDbEntity
  8
AM_0
100
AcDbCircle
 10
297.7435124543626
 20
121.9338389625348
 30
0.0
 40
20.0
100
AcDbArc
 50
314.9999850000058
 51
0.0
  0
ARC
  5
2F94
330
1A
100
AcDbEntity
  8
AM_0
100
AcDbCircle
 10
285.7435084543626
 20
121.1921239625348
 30
0.0
 40
20.0
100
AcDbArc
 50
326.0000109999958
 51
0.0
  0
ARC
  5
2F95
330
1A
100
AcDbEntity
  8
AM_0
100
AcDbCircle
 10
297.7435124543626
 20
121.9338539625347
 30
0.0
 40
13.999999
100
AcDbArc
 50
314.9998889999945
 51
0.0
  0
LINE
  5
2F96
330
1A
100
AcDbEntity
  8
AM_0
100
AcDbLine
 10
311.8856404543626
 20
107.7916959625348
 30
0.0
 11
300.4506194543626
 21
96.35668296253482
 31
0.0
  0
LINE
  5
2F97
330
1A
100
AcDbEntity
  8
AM_0
100
AcDbLine
 10
295.9618504543627
 20
100.5756009625348
 30
0.0
 11
302.3242614543626
 21
110.0082639625349
 31
0.0
  0
ARC
  5
2F98
330
1A
100
AcDbEntity
  8
AM_0
100
AcDbCircle
 10
296.7908904543626
 20
100.0164119625348
 30
0.0
 40
1.0
100
AcDbArc
 50
145.9998090000018
 51
224.9998439999984
  0
LINE
  5
2F99
330
1A
100
AcDbEntity
  8
AM_0
100
AcDbLine
 10
299.0364044543626
 20
96.35668296253482
 30
0.0
 11
296.0837794543626
 21
99.30930396253479
 31
0.0
  0
ARC
  5
2F9A
330
1A
100
AcDbEntity
  8
AM_0
100
AcDbCircle
 10
299.7435124543626
 20
97.06378996253484
 30
0.0
 40
1.0
100
AcDbArc
 50
225.0001560000016
 51
315.0001560000013
  0
DIMENSION
  5
2F9B
330
1A
100
AcDbEntity
  8
AM_5
100
AcDbDimension
  2
*D22
 10
296.0145575076809
 20
204.0638019625348
 30
0.0
 11
296.0145575076808
 21
242.2740126554482
 31
0.0
 70
   160
  1
%%c<>
 71
     5
 42
22.00000399999999
 73
     0
 74
     0
 75
     0
  3
AM_ISO
100
AcDbAlignedDimension
 13
262.7435164543625
 23
226.0638059625348
 33
0.0
 14
262.7435164543625
 24
204.0638019625348
 34
0.0
 50
270.0
100
AcDbRotatedDimension
1001
ACAD
1000
DSTYLE
1002
{
1070
    40
1040
2.0
1002
}
  0
DIMENSION
  5
2F9C
330
1A
100
AcDbEntity
  8
AM_5
100
AcDbDimension
  2
*D23
 10
317.7435274543626
 20
274.0638029625348
 30
0.0
 11
290.2435219543626
 21
280.5638029625349
 31
0.0
 70
    32
 71
     5
 42
55.00001100000009
 73
     0
 74
     0
 75
     0
  3
AM_ISO
100
AcDbAlignedDimension
 13
262.7435164543625
 23
226.0638059625348
 33
0.0
 14
317.7435274543626
 24
226.0638059625348
 34
0.0
 50
180.0
100
AcDbRotatedDimension
1001
ACAD
1000
DSTYLE
1002
{
1070
    40
1040
2.0
1002
}
  0
DIMENSION
  5
2F9D
330
1A
100
AcDbEntity
  8
AM_5
100
AcDbDimension
  2
*D24
 10
341.4063857623821
 20
96.06378996253852
 30
0.0
 11
341.4063857623821
 21
163.2315976056112
 31
0.0
 70
   160
 71
     5
 42
130.0000159999963
 73
     0
 74
     0
 75
     0
  3
AM_ISO
100
AcDbAlignedDimension
 13
317.7435274543626
 23
226.0638059625348
 33
0.0
 14
299.7435151770762
 24
96.06378996253852
 34
0.0
 50
270.0
100
AcDbRotatedDimension
1001
ACAD
1000
DSTYLE
1002
{
1070
    40
1040
2.0
1002
}
  0
LINE
  5
2F9F
330
1A
100
AcDbEntity
  8
AM_7
100
AcDbLine
 10
174.321685936589
 20
215.063816128159
 30
0.0
 11
138.1984941085359
 21
215.063816128159
 31
0.0
  0
ARC
  5
2FA1
330
1A
100
AcDbEntity
  8
AM_0
100
AcDbCircle
 10
156.2600896299053
 20
215.063816128159
 30
0.0
 40
11.0
100
AcDbArc
 50
0.0
 51
180.0
  0
LINE
  5
2FA2
330
1A
100
AcDbEntity
  8
AM_0
100
AcDbLine
 10
145.2600896299053
 20
215.063816128159
 30
0.0
 11
145.2600896299053
 21
96.56380412815904
 31
0.0
  0
LINE
  5
2FA3
330
1A
100
AcDbEntity
  8
AM_0
100
AcDbLine
 10
167.2600896299053
 20
215.063816128159
 30
0.0
 11
167.2600896299053
 21
96.56380412815904
 31
0.0
  0
LINE
  5
2FA4
330
1A
100
AcDbEntity
  8
AM_0
100
AcDbLine
 10
166.7600896299053
 20
96.06380412815903
 30
0.0
 11
145.7600896299053
 21
96.06380412815903
 31
0.0
  0
ARC
  5
2FA5
330
1A
100
AcDbEntity
  8
AM_0
100
AcDbCircle
 10
145.7600896299053
 20
96.56380412815904
 30
0.0
 40
0.5
100
AcDbArc
 50
180.0
 51
270.0
  0
ARC
  5
2FA6
330
1A
100
AcDbEntity
  8
AM_0
100
AcDbCircle
 10
166.7600896299053
 20
96.56380412815904
 30
0.0
 40
0.5
100
AcDbArc
 50
270.0
 51
0.0
  0
LINE
  5
2FA7
330
1A
100
AcDbEntity
  8
AM_4
100
AcDbLine
 10
167.2600896299053
 20
118.806917782651
 30
0.0
 11
145.2600896299053
 21
118.806917782651
 31
0.0
  0
VIEWPORT
  5
22
330
17
100
AcDbEntity
 67
     1
  8
0
100
AcDbViewport
 10
112.2893422104056
 20
152.9962003562143
 30
0.0
 40
408.1687337183674
 41
318.4351405079092
 68
     1
 69
     1
 12
112.2893422104056
 22
152.9962003562143
 13
0.0
 23
0.0
 14
10.0
 24
10.0
 15
10.0
 25
10.0
 16
0.0
 26
0.0
 36
1.0
 17
0.0
 27
0.0
 37
0.0
 42
50.0
 43
0.0
 44
0.0
 45
318.4351405079092
 50
0.0
 51
0.0
 72
   100
331
1969
 90
    32800
  1

281
     0
 71
     1
 74
     0
110
0.0
120
0.0
130
0.0
111
1.0
121
0.0
131
0.0
112
0.0
122
1.0
132
0.0
 79
     0
146
0.0
170
     0
 61
     5
348
239F
292
     1
282
     1
141
0.0
142
0.0
 63
   250
421
  3355443
1001
GENIUS_GENSCREG_15
1000
PF
1040
1.0
1000
DF
1040
1.0
1000
MIN
1011
11.7063398794879
1021
69.23822698240406
1031
0.0
1000
MAX
1011
146.8807982645257
1021
174.6953433489414
1031
0.0
1000
FLAGS
1070
     4
1001
GENIUS_GENOREF_13
1005
1677
  0
POINT
  5
1895
330
17
100
AcDbEntity
 67
     1
  8
AM_0
 60
     1
100
AcDbPoint
 10
0.0
 20
0.0
 30
0.0
  0
POINT
  5
189D
330
17
100
AcDbEntity
 67
     1
  8
AM_0
 60
     1
100
AcDbPoint
 10
0.0
 20
0.0
 30
0.0
  0
POINT
  5
1900
330
17
100
AcDbEntity
 67
     1
  8
AM_0
 60
     1
100
AcDbPoint
 10
0.0
 20
0.0
 30
0.0
  0
POINT
  5
1908
330
17
100
AcDbEntity
 67
     1
  8
AM_0
 60
     1
100
AcDbPoint
 10
0.0
 20
0.0
 30
0.0
  0
ENDSEC
  0
SECTION
  2
OBJECTS
  0
DICTIONARY
  5
C
330
0
100
AcDbDictionary
281
     1
  3
ACAD_COLOR
350
1F03
  3
ACAD_GROUP
350
D
  3
ACAD_LAYOUT
350
167
  3
ACAD_MATERIAL
350
1F02
  3
ACAD_MLINESTYLE
350
E
  3
ACAD_PLOTSETTINGS
350
168
  3
ACAD_PLOTSTYLENAME
350
165
  3
ACAD_TABLESTYLE
350
23AA
  3
ACAD_VISUALSTYLE
350
2399
  3
ACDBVARIABLEDICTIONARY
350
5D
  3
ACMDICTIONARY
350
142
  3
AMG
350
171
  3
AMG_3D2D_DICT
350
18A8
  3
AMGSNAPSETTINGS
350
1F2
  3
MAPISURF_MODULE
350
17FD
  0
DICTIONARY
  5
12A
330
1A
100
AcDbDictionary
280
     1
281
     1
  3
ACAD_INDEX
360
17BE
  0
DICTIONARY
  5
1F03
102
{ACAD_REACTORS
330
C
102
}
330
C
100
AcDbDictionary
281
     1
  0
DICTIONARY
  5
D
102
{ACAD_REACTORS
330
C
102
}
330
C
100
AcDbDictionary
281
     1
  0
DICTIONARY
  5
167
102
{ACAD_REACTORS
330
C
102
}
330
C
100
AcDbDictionary
281
     1
  3
A0
350
351
  3
A1
350
314
  3
A2
350
349
  3
A3
350
2E1
  3
A4
350
16A
  3
Model
350
169
  0
DICTIONARY
  5
1F02
102
{ACAD_REACTORS
330
C
102
}
330
C
100
AcDbDictionary
281
     1
  3
ByBlock
350
2397
  3
ByLayer
350
2396
  3
Global
350
2398
  0
DICTIONARY
  5
E
102
{ACAD_REACTORS
330
C
102
}
330
C
100
AcDbDictionary
281
     1
  3
STANDARD
350
13
  0
DICTIONARY
  5
168
102
{ACAD_REACTORS
330
C
102
}
330
C
100
AcDbDictionary
281
     1
  3
A0
350
2EE
  3
A0-A3
350
2F2
  3
A0-A4
350
2F3
  3
A1
350
2ED
  3
A2
350
2EA
  3
A3
350
31E
  3
A4
350
319
  0
ACDBDICTIONARYWDFLT
  5
165
102
{ACAD_REACTORS
330
C
102
}
330
C
100
AcDbDictionary
281
     1
  3
Normal
350
166
100
AcDbDictionaryWithDefault
340
166
  0
DICTIONARY
  5
23AA
102
{ACAD_REACTORS
330
C
102
}
330
C
100
AcDbDictionary
281
     1
  3
Standard
350
23AB
  0
DICTIONARY
  5
2399
102
{ACAD_REACTORS
330
C
102
}
330
C
100
AcDbDictionary
281
     1
  3
2dWireframe
350
239F
  3
3D Hidden
350
23A1
  3
3dWireframe
350
23A0
  3
Basic
350
239E
  3
Brighten
350
23A5
  3
ColorChange
350
23A9
  3
Conceptual
350
23A2
  3
Dim
350
23A4
  3
Facepattern
350
23A8
  3
Flat
350
239A
  3
FlatWithEdges
350
239B
  3
Gouraud
350
239C
  3
GouraudWithEdges
350
239D
  3
Linepattern
350
23A7
  3
Realistic
350
23A3
  3
Thicken
350
23A6
  0
DICTIONARY
  5
5D
102
{ACAD_REACTORS
330
C
102
}
330
C
100
AcDbDictionary
281
     1
  3
CTABLESTYLE
350
23D3
  3
DIMADEC
350
5E
  3
INDEXCTL
350
128
  3
SORTENTS
350
1044
  0
DICTIONARY
  5
142
102
{ACAD_REACTORS
330
C
102
}
330
C
100
AcDbDictionary
281
     1
  3
ACMSTDDICTIONARY
350
143
  3
AMDTSECTSYM_ARROWCOLOR
350
23CC
  0
DICTIONARY
  5
171
102
{ACAD_REACTORS
330
C
102
}
330
C
100
AcDbDictionary
281
     1
  3
AcMgSettings
350
172
  3
AMGLAYCFG
350
174
  0
DICTIONARY
  5
18A8
102
{ACAD_REACTORS
330
C
102
}
330
C
100
AcDbDictionary
281
     1
  3
AMG_SUBLIST_DICT
350
18A9
  0
DICTIONARY
  5
1F2
102
{ACAD_REACTORS
330
C
102
}
330
C
100
AcDbDictionary
281
     1
  3
DIMENSION
350
164B
  3
FEA
350
164C
  3
HATCH
350
164D
  3
SYMBOLS
350
164E
  0
DICTIONARY
  5
17BE
102
{ACAD_REACTORS
330
12A
102
}
330
12A
100
AcDbDictionary
281
     1
  3
*A1
350
17BF
  0
LAYOUT
  5
351
102
{ACAD_REACTORS
330
167
102
}
330
167
100
AcDbPlotSettings
  1
A0
  2
HPDJ220-A0
  4
User268
  6

 40
4.995333194732666
 41
16.93336677551269
 42
4.99530029296875
 43
16.933349609375
 44
840.9093017578125
 45
1188.8046875
 46
0.0
 47
0.0
 48
0.0
 49
0.0
140
0.0
141
0.0
142
1.0
143
1.0
 70
   752
 72
     1
 73
     1
 74
     5
  7
PLA0.ctb
 75
    16
147
1.0
 76
     0
 77
     2
 78
   300
148
0.0
149
0.0
100
AcDbLayout
  1
A0
 70
     1
 71
     5
 10
-16.933349609375
 20
-4.995333194732666
 11
1171.871337890625
 21
835.9139685630799
 12
0.0
 22
0.0
 32
0.0
 14
1.000000000000000E+20
 24
1.000000000000000E+20
 34
1.000000000000000E+20
 15
-1.000000000000000E+20
 25
-1.000000000000000E+20
 35
-1.000000000000000E+20
146
0.0
 13
0.0
 23
0.0
 33
0.0
 16
1.0
 26
0.0
 36
0.0
 17
0.0
 27
1.0
 37
0.0
 76
     0
330
34D
331
34E
  0
LAYOUT
  5
314
102
{ACAD_REACTORS
330
167
102
}
330
167
100
AcDbPlotSettings
  1
A2
  2
HPDJ220-A0
  4
User266
  6

 40
4.995333194732666
 41
16.93330574035644
 42
4.995330810546875
 43
16.933349609375
 44
419.9466552734374
 45
593.8519897460937
 46
0.0
 47
0.0
 48
0.0
 49
0.0
140
0.0
141
0.0
142
1.0
143
1.0
 70
   752
 72
     1
 73
     1
 74
     5
  7
PLA2.ctb
 75
    16
147
1.0
 76
     0
 77
     2
 78
   300
148
0.0
149
0.0
100
AcDbLayout
  1
A1
 70
     1
 71
     4
 10
-16.933349609375
 20
-4.995333194732666
 11
576.9186401367187
 21
414.9513220787047
 12
0.0
 22
0.0
 32
0.0
 14
1.000000000000000E+20
 24
1.000000000000000E+20
 34
1.000000000000000E+20
 15
-1.000000000000000E+20
 25
-1.000000000000000E+20
 35
-1.000000000000000E+20
146
0.0
 13
0.0
 23
0.0
 33
0.0
 16
1.0
 26
0.0
 36
0.0
 17
0.0
 27
1.0
 37
0.0
 76
     0
330
313
331
344
  0
LAYOUT
  5
349
102
{ACAD_REACTORS
330
167
102
}
330
167
100
AcDbPlotSettings
  1
A2
  2
HPDJ220-A0
  4
User266
  6

 40
4.995333194732666
 41
16.93330574035644
 42
4.995330810546875
 43
16.933349609375
 44
419.9466552734374
 45
593.8519897460937
 46
0.0
 47
0.0
 48
0.0
 49
0.0
140
0.0
141
0.0
142
1.0
143
1.0
 70
   752
 72
     1
 73
     1
 74
     5
  7
PLA2.ctb
 75
    16
147
1.0
 76
     0
 77
     2
 78
   300
148
0.0
149
0.0
100
AcDbLayout
  1
A2
 70
     1
 71
     3
 10
-16.933349609375
 20
-4.995333194732666
 11
576.9186401367187
 21
414.9513220787047
 12
0.0
 22
0.0
 32
0.0
 14
1.000000000000000E+20
 24
1.000000000000000E+20
 34
1.000000000000000E+20
 15
-1.000000000000000E+20
 25
-1.000000000000000E+20
 35
-1.000000000000000E+20
146
0.0
 13
0.0
 23
0.0
 33
0.0
 16
1.0
 26
0.0
 36
0.0
 17
0.0
 27
1.0
 37
0.0
 76
     0
330
345
331
346
  0
LAYOUT
  5
2E1
102
{ACAD_REACTORS
330
167
102
}
330
167
100
AcDbPlotSettings
  1
A3
  2
\\GLUTZCH_PDC\HP LaserJet 5000 N PCL 6
  4
A3
  6

 40
5.027083396911621
 41
5.111741065979003
 42
5.11175537109375
 43
5.027069091796875
 44
297.0106506347656
 45
419.9889831542968
 46
0.0
 47
0.0
 48
0.0
 49
0.0
140
0.0
141
0.0
142
1.0
143
1.0
 70
   752
 72
     1
 73
     1
 74
     5
  7
LAA3.ctb
 75
    16
147
1.0
 76
     0
 77
     2
 78
   300
148
0.0
149
0.0
100
AcDbLayout
  1
A3
 70
     1
 71
     2
 10
-5.027069091796875
 20
-5.027083396911621
 11
414.9619140625
 21
291.983567237854
 12
0.0
 22
0.0
 32
0.0
 14
1.000000000000000E+20
 24
1.000000000000000E+20
 34
1.000000000000000E+20
 15
-1.000000000000000E+20
 25
-1.000000000000000E+20
 35
-1.000000000000000E+20
146
0.0
 13
0.0
 23
0.0
 33
0.0
 16
1.0
 26
0.0
 36
0.0
 17
0.0
 27
1.0
 37
0.0
 76
     0
330
2E0
331
31D
  0
LAYOUT
  5
16A
102
{ACAD_REACTORS
330
167
102
}
330
167
100
AcDbPlotSettings
  1
A4
  2
\\GLUTZCH_PDC\HP LaserJet 5000 N PCL 6
  4
A4
  6

 40
5.027083396911621
 41
5.111741065979003
 42
5.11175537109375
 43
5.027069091796875
 44
210.0156707763672
 45
297.0106506347656
 46
0.0
 47
0.0
 48
0.0
 49
0.0
140
0.0
141
0.0
142
1.0
143
1.0
 70
   752
 72
     1
 73
     0
 74
     5
  7
LAA4.ctb
 75
    16
147
1.0
 76
     0
 77
     2
 78
   300
148
0.0
149
0.0
100
AcDbLayout
  1
A4
 70
     1
 71
     1
 10
-5.027083396911621
 20
-5.111741065979003
 11
204.9885873794556
 21
291.8989095687866
 12
0.0
 22
0.0
 32
0.0
 14
1.000000000000000E+20
 24
1.000000000000000E+20
 34
1.000000000000000E+20
 15
-1.000000000000000E+20
 25
-1.000000000000000E+20
 35
-1.000000000000000E+20
146
0.0
 13
0.0
 23
0.0
 33
0.0
 16
1.0
 26
0.0
 36
0.0
 17
0.0
 27
1.0
 37
0.0
 76
     0
330
17
331
22
  0
LAYOUT
  5
169
102
{ACAD_REACTORS
330
167
102
}
330
167
100
AcDbPlotSettings
  1

  2
none_device
  4
Letter_(8.50_x_11.00_Inches)
  6

 40
6.349999904632568
 41
6.349999904632568
 42
6.350006103515625
 43
6.350006103515625
 44
215.8999938964844
 45
279.3999938964844
 46
0.0
 47
0.0
 48
0.0
 49
0.0
140
0.0
141
0.0
142
1.0
143
1.0
 70
 11952
 72
     1
 73
     1
 74
     0
  7

 75
     0
147
1.0
 76
     0
 77
     2
 78
   300
148
132.7991233664737
149
145.8977702091758
100
AcDbLayout
  1
Model
 70
     1
 71
     0
 10
0.0
 20
0.0
 11
12.0
 21
9.0
 12
0.0
 22
0.0
 32
0.0
 14
0.0
 24
0.0
 34
0.0
 15
0.0
 25
0.0
 35
0.0
146
0.0
 13
0.0
 23
0.0
 33
0.0
 16
1.0
 26
0.0
 36
0.0
 17
0.0
 27
1.0
 37
0.0
 76
     0
330
1A
331
2394
  0
MATERIAL
  5
2397
102
{ACAD_REACTORS
330
1F02
102
}
330
1F02
100
AcDbMaterial
  1
ByBlock
  0
MATERIAL
  5
2396
102
{ACAD_REACTORS
330
1F02
102
}
330
1F02
100
AcDbMaterial
  1
ByLayer
  0
MATERIAL
  5
2398
102
{ACAD_REACTORS
330
1F02
102
}
330
1F02
100
AcDbMaterial
  1
Global
  0
MLINESTYLE
  5
13
102
{ACAD_REACTORS
330
E
102
}
330
E
100
AcDbMlineStyle
  2
STANDARD
 70
     0
  3

 62
     0
 51
90.0
 52
90.0
 71
     2
 49
0.5
 62
   256
  6
BYLAYER
 49
-0.5
 62
   256
  6
BYLAYER
  0
PLOTSETTINGS
  5
2EE
102
{ACAD_REACTORS
330
168
102
}
330
168
100
AcDbPlotSettings
  1
A0
  2
HPDJ220-A0
  4
User268
  6

 40
4.995333194732666
 41
16.93336677551269
 42
4.99530029296875
 43
16.933349609375
 44
840.9093017578125
 45
1188.8046875
 46
0.0
 47
0.0
 48
0.0
 49
0.0
140
0.0
141
0.0
142
1.0
143
1.0
 70
   752
 72
     1
 73
     1
 74
     5
  7
PLA0.ctb
 75
    16
147
1.0
 76
     0
 77
     2
 78
   300
148
0.0
149
0.0
  0
PLOTSETTINGS
  5
2F2
102
{ACAD_REACTORS
330
168
102
}
330
168
100
AcDbPlotSettings
  1
A0-A3
  2
\\GLUTZCH_PDC\HP LaserJet 5000 N PCL 6
  4
A3
  6

 40
5.027083396911621
 41
5.111741065979003
 42
5.11175537109375
 43
5.027069091796875
 44
297.0106506347656
 45
419.9889831542968
 46
0.0
 47
0.0
 48
0.0
 49
0.0
140
0.0
141
0.0
142
1.0
143
1.0
 70
   752
 72
     1
 73
     1
 74
     5
  7
LAA0-A3.ctb
 75
     0
147
1.0
 76
     0
 77
     2
 78
   300
148
0.0
149
0.0
  0
PLOTSETTINGS
  5
2F3
102
{ACAD_REACTORS
330
168
102
}
330
168
100
AcDbPlotSettings
  1
A0-A4
  2
\\GLUTZCH_PDC\HP LaserJet 5000 N PCL 6
  4
A4
  6

 40
5.027083396911621
 41
5.111741065979003
 42
5.11175537109375
 43
5.027069091796875
 44
210.0156707763672
 45
297.0106506347656
 46
0.0
 47
0.0
 48
0.0
 49
0.0
140
0.0
141
0.0
142
1.0
143
1.0
 70
   752
 72
     1
 73
     0
 74
     5
  7
LAA0-A4.ctb
 75
     0
147
1.0
 76
     0
 77
     2
 78
   300
148
0.0
149
0.0
  0
PLOTSETTINGS
  5
2ED
102
{ACAD_REACTORS
330
168
102
}
330
168
100
AcDbPlotSettings
  1
A1
  2
HPDJ220-A0
  4
User267
  6

 40
4.995333194732666
 41
16.93330574035644
 42
4.99530029296875
 43
16.933349609375
 44
593.9366455078125
 45
840.8246459960937
 46
0.0
 47
0.0
 48
0.0
 49
0.0
140
0.0
141
0.0
142
1.0
143
1.0
 70
   752
 72
     1
 73
     1
 74
     5
  7
PLA1.ctb
 75
    16
147
1.0
 76
     0
 77
     2
 78
   300
148
0.0
149
0.0
  0
PLOTSETTINGS
  5
2EA
102
{ACAD_REACTORS
330
168
102
}
330
168
100
AcDbPlotSettings
  1
A2
  2
HPDJ220-A0
  4
User266
  6

 40
4.995333194732666
 41
16.93330574035644
 42
4.995330810546875
 43
16.933349609375
 44
419.9466552734374
 45
593.8519897460937
 46
0.0
 47
0.0
 48
0.0
 49
0.0
140
0.0
141
0.0
142
1.0
143
1.0
 70
   752
 72
     1
 73
     1
 74
     5
  7
PLA2.ctb
 75
    16
147
1.0
 76
     0
 77
     2
 78
   300
148
0.0
149
0.0
  0
PLOTSETTINGS
  5
31E
102
{ACAD_REACTORS
330
168
102
}
330
168
100
AcDbPlotSettings
  1
A3
  2
\\GLUTZCH_PDC\HP LaserJet 5000 N PCL 6
  4
A3
  6

 40
5.027083396911621
 41
5.111741065979003
 42
5.11175537109375
 43
5.027069091796875
 44
297.0106506347656
 45
419.9889831542968
 46
0.0
 47
0.0
 48
0.0
 49
0.0
140
0.0
141
0.0
142
1.0
143
1.0
 70
   752
 72
     1
 73
     1
 74
     5
  7
LAA3.ctb
 75
    16
147
1.0
 76
     0
 77
     2
 78
   300
148
0.0
149
0.0
  0
PLOTSETTINGS
  5
319
102
{ACAD_REACTORS
330
168
102
}
330
168
100
AcDbPlotSettings
  1
A4
  2
\\GLUTZCH_PDC\HP LaserJet 5000 N PCL 6
  4
A4
  6

 40
5.027083396911621
 41
5.111741065979003
 42
5.11175537109375
 43
5.027069091796875
 44
210.0156707763672
 45
297.0106506347656
 46
0.0
 47
0.0
 48
0.0
 49
0.0
140
0.0
141
0.0
142
1.0
143
1.0
 70
   752
 72
     1
 73
     0
 74
     5
  7
LAA4.ctb
 75
    16
147
1.0
 76
     0
 77
     2
 78
   300
148
0.0
149
0.0
  0
ACDBPLACEHOLDER
  5
166
102
{ACAD_REACTORS
330
165
102
}
330
165
  0
TABLESTYLE
  5
23AB
102
{ACAD_REACTORS
330
23AA
102
}
330
23AA
100
AcDbTableStyle
  3
Standard
 70
     0
 71
     0
 40
1.5
 41
1.5
280
     0
281
     0
  7
STANDARD
140
4.5
170
     2
 62
     0
 63
     7
283
     0
 90
      512
 91
        0
  1

274
    -2
284
     1
 64
     0
275
    -2
285
     1
 65
     0
276
    -2
286
     1
 66
     0
277
    -2
287
     1
 67
     0
278
    -2
288
     1
 68
     0
279
    -2
289
     1
 69
     0
  7
STANDARD
140
6.0
170
     5
 62
     0
 63
     7
283
     0
 90
      512
 91
        0
  1

274
    -2
284
     1
 64
     0
275
    -2
285
     1
 65
     0
276
    -2
286
     1
 66
     0
277
    -2
287
     1
 67
     0
278
    -2
288
     1
 68
     0
279
    -2
289
     1
 69
     0
  7
STANDARD
140
4.5
170
     5
 62
     0
 63
     7
283
     0
 90
      512
 91
        0
  1

274
    -2
284
     1
 64
     0
275
    -2
285
     1
 65
     0
276
    -2
286
     1
 66
     0
277
    -2
287
     1
 67
     0
278
    -2
288
     1
 68
     0
279
    -2
289
     1
 69
     0
  0
VISUALSTYLE
  5
239F
102
{ACAD_REACTORS
330
2399
102
}
330
2399
100
AcDbVisualStyle
  2
2dWireframe
 70
     4
 71
     0
 72
     2
 73
     0
 90
        0
 40
-0.6
 41
-30.0
 62
     5
 63
     7
421
 16777215
 74
     1
 91
        4
 64
     7
 65
   257
 75
     1
175
     1
 42
1.0
 92
        0
 66
   257
 43
1.0
 76
     1
 77
     6
 78
     2
 67
     7
 79
     5
170
     0
171
     0
290
     0
174
     0
 93
        1
 44
0.0
173
     0
291
     0
 45
0.0
  0
VISUALSTYLE
  5
23A1
102
{ACAD_REACTORS
330
2399
102
}
330
2399
100
AcDbVisualStyle
  2
3D Hidden
 70
     6
 71
     1
 72
     2
 73
     2
 90
        0
 40
-0.6
 41
-30.0
 62
     5
 63
     7
421
 16777215
 74
     2
 91
        2
 64
     7
 65
   257
 75
     2
175
     1
 42
40.0
 92
        0
 66
   257
 43
1.0
 76
     1
 77
     6
 78
     2
 67
     7
 79
     3
170
     0
171
     0
290
     0
174
     0
 93
        1
 44
0.0
173
     0
291
     0
 45
0.0
  0
VISUALSTYLE
  5
23A0
102
{ACAD_REACTORS
330
2399
102
}
330
2399
100
AcDbVisualStyle
  2
3dWireframe
 70
     5
 71
     0
 72
     2
 73
     0
 90
        0
 40
-0.6
 41
-30.0
 62
     5
 63
     7
421
 16777215
 74
     1
 91
        4
 64
     7
 65
   257
 75
     1
175
     1
 42
1.0
 92
        0
 66
   257
 43
1.0
 76
     1
 77
     6
 78
     2
 67
     7
 79
     5
170
     0
171
     0
290
     0
174
     0
 93
        1
 44
0.0
173
     0
291
     0
 45
0.0
  0
VISUALSTYLE
  5
239E
102
{ACAD_REACTORS
330
2399
102
}
330
2399
100
AcDbVisualStyle
  2
Basic
 70
     7
 71
     1
 72
     0
 73
     1
 90
        0
 40
-0.6
 41
-30.0
 62
     5
 63
     7
421
 16777215
 74
     0
 91
        4
 64
     7
 65
   257
 75
     1
175
     1
 42
1.0
 92
        8
 66
     7
 43
1.0
 76
     1
 77
     6
 78
     2
 67
     7
 79
     5
170
     0
171
     0
290
     0
174
     0
 93
        1
 44
0.0
173
     0
291
     1
 45
0.0
  0
VISUALSTYLE
  5
23A5
102
{ACAD_REACTORS
330
2399
102
}
330
2399
100
AcDbVisualStyle
  2
Brighten
 70
    12
 71
     2
 72
     2
 73
     0
 90
        0
 40
-0.6
 41
-30.0
 62
     5
 63
     7
421
 16777215
 74
     1
 91
        4
 64
     7
 65
   257
 75
     1
175
     1
 42
1.0
 92
        8
 66
     7
 43
1.0
 76
     1
 77
     6
 78
     2
 67
     7
 79
     5
170
     0
171
     0
290
     0
174
     0
 93
        1
 44
50.0
173
     0
291
     1
 45
0.0
  0
VISUALSTYLE
  5
23A9
102
{ACAD_REACTORS
330
2399
102
}
330
2399
100
AcDbVisualStyle
  2
ColorChange
 70
    16
 71
     2
 72
     2
 73
     3
 90
        0
 40
-0.6
 41
-30.0
 62
     5
 63
     8
421
  8421504
 74
     1
 91
        4
 64
     7
 65
   257
 75
     1
175
     1
 42
1.0
 92
        8
 66
     8
424
  8421504
 43
1.0
 76
     1
 77
     6
 78
     2
 67
     7
 79
     5
170
     0
171
     0
290
     0
174
     0
 93
        1
 44
0.0
173
     0
291
     1
 45
0.0
  0
VISUALSTYLE
  5
23A2
102
{ACAD_REACTORS
330
2399
102
}
330
2399
100
AcDbVisualStyle
  2
Conceptual
 70
     9
 71
     3
 72
     2
 73
     0
 90
        0
 40
-0.6
 41
-30.0
 62
     5
 63
     7
421
 16777215
 74
     2
 91
        2
 64
     7
 65
   257
 75
     1
175
     1
 42
40.0
 92
        8
 66
     7
 43
1.0
 76
     1
 77
     6
 78
     2
 67
     7
 79
     3
170
     0
171
     0
290
     0
174
     0
 93
        1
 44
0.0
173
     0
291
     0
 45
0.0
  0
VISUALSTYLE
  5
23A4
102
{ACAD_REACTORS
330
2399
102
}
330
2399
100
AcDbVisualStyle
  2
Dim
 70
    11
 71
     2
 72
     2
 73
     0
 90
        0
 40
-0.6
 41
-30.0
 62
     5
 63
     7
421
 16777215
 74
     1
 91
        4
 64
     7
 65
   257
 75
     1
175
     1
 42
1.0
 92
        8
 66
     7
 43
1.0
 76
     1
 77
     6
 78
     2
 67
     7
 79
     5
170
     0
171
     0
290
     0
174
     0
 93
        1
 44
-50.0
173
     0
291
     1
 45
0.0
  0
VISUALSTYLE
  5
23A8
102
{ACAD_REACTORS
330
2399
102
}
330
2399
100
AcDbVisualStyle
  2
Facepattern
 70
    15
 71
     2
 72
     2
 73
     0
 90
        0
 40
-0.6
 41
-30.0
 62
     5
 63
     7
421
 16777215
 74
     1
 91
        4
 64
     7
 65
   257
 75
     1
175
     1
 42
1.0
 92
        8
 66
     7
 43
1.0
 76
     1
 77
     6
 78
     2
 67
     7
 79
     5
170
     0
171
     0
290
     0
174
     0
 93
        1
 44
0.0
173
     0
291
     1
 45
0.0
  0
VISUALSTYLE
  5
239A
102
{ACAD_REACTORS
330
2399
102
}
330
2399
100
AcDbVisualStyle
  2
Flat
 70
     0
 71
     2
 72
     1
 73
     1
 90
        2
 40
-0.6
 41
30.0
 62
     5
 63
     7
421
 16777215
 74
     0
 91
        4
 64
     7
 65
   257
 75
     1
175
     1
 42
1.0
 92
        8
 66
     7
 43
1.0
 76
     1
 77
     6
 78
     2
 67
     7
 79
     5
170
     0
171
     0
290
     0
174
     0
 93
       13
 44
0.0
173
     0
291
     1
 45
0.0
  0
VISUALSTYLE
  5
239B
102
{ACAD_REACTORS
330
2399
102
}
330
2399
100
AcDbVisualStyle
  2
FlatWithEdges
 70
     1
 71
     2
 72
     1
 73
     1
 90
        2
 40
-0.6
 41
30.0
 62
     5
 63
     7
421
 16777215
 74
     1
 91
        4
 64
     7
 65
   257
 75
     1
175
     1
 42
1.0
 92
        0
 66
   257
 43
1.0
 76
     1
 77
     6
 78
     2
 67
     7
 79
     5
170
     0
171
     0
290
     0
174
     0
 93
       13
 44
0.0
173
     0
291
     1
 45
0.0
  0
VISUALSTYLE
  5
239C
102
{ACAD_REACTORS
330
2399
102
}
330
2399
100
AcDbVisualStyle
  2
Gouraud
 70
     2
 71
     2
 72
     2
 73
     1
 90
        2
 40
-0.6
 41
30.0
 62
     5
 63
     7
421
 16777215
 74
     0
 91
        4
 64
     7
 65
   257
 75
     1
175
     1
 42
1.0
 92
        0
 66
     7
 43
1.0
 76
     1
 77
     6
 78
     2
 67
     7
 79
     5
170
     0
171
     0
290
     0
174
     0
 93
       13
 44
0.0
173
     0
291
     1
 45
0.0
  0
VISUALSTYLE
  5
239D
102
{ACAD_REACTORS
330
2399
102
}
330
2399
100
AcDbVisualStyle
  2
GouraudWithEdges
 70
     3
 71
     2
 72
     2
 73
     1
 90
        2
 40
-0.6
 41
30.0
 62
     5
 63
     7
421
 16777215
 74
     1
 91
        4
 64
     7
 65
   257
 75
     1
175
     1
 42
1.0
 92
        0
 66
   257
 43
1.0
 76
     1
 77
     6
 78
     2
 67
     7
 79
     5
170
     0
171
     0
290
     0
174
     0
 93
       13
 44
0.0
173
     0
291
     1
 45
0.0
  0
VISUALSTYLE
  5
23A7
102
{ACAD_REACTORS
330
2399
102
}
330
2399
100
AcDbVisualStyle
  2
Linepattern
 70
    14
 71
     2
 72
     2
 73
     0
 90
        0
 40
-0.6
 41
-30.0
 62
     5
 63
     7
421
 16777215
 74
     1
 91
        4
 64
     7
 65
   257
 75
     7
175
     7
 42
1.0
 92
        8
 66
     7
 43
1.0
 76
     1
 77
     6
 78
     2
 67
     7
 79
     5
170
     0
171
     0
290
     0
174
     0
 93
        1
 44
0.0
173
     0
291
     1
 45
0.0
  0
VISUALSTYLE
  5
23A3
102
{ACAD_REACTORS
330
2399
102
}
330
2399
100
AcDbVisualStyle
  2
Realistic
 70
     8
 71
     2
 72
     2
 73
     0
 90
        0
 40
-0.6
 41
-30.0
 62
     5
 63
     7
421
 16777215
 74
     1
 91
        0
 64
     7
 65
   257
 75
     1
175
     1
 42
1.0
 92
        8
 66
     8
424
  7895160
 43
1.0
 76
     1
 77
     6
 78
     2
 67
     7
 79
     5
170
     0
171
     0
290
     0
174
     0
 93
       13
 44
0.0
173
     0
291
     0
 45
0.0
  0
VISUALSTYLE
  5
23A6
102
{ACAD_REACTORS
330
2399
102
}
330
2399
100
AcDbVisualStyle
  2
Thicken
 70
    13
 71
     2
 72
     2
 73
     0
 90
        0
 40
-0.6
 41
-30.0
 62
     5
 63
     7
421
 16777215
 74
     1
 91
        4
 64
     7
 65
   257
 75
     1
175
     1
 42
1.0
 92
       12
 66
     7
 43
1.0
 76
     1
 77
     6
 78
     2
 67
     7
 79
     5
170
     0
171
     0
290
     0
174
     0
 93
        1
 44
0.0
173
     0
291
     1
 45
0.0
  0
DICTIONARYVAR
  5
23D3
102
{ACAD_REACTORS
330
5D
102
}
330
5D
100
DictionaryVariables
280
     0
  1
STANDARD
  0
DICTIONARYVAR
  5
5E
102
{ACAD_REACTORS
330
5D
102
}
330
5D
100
DictionaryVariables
280
     0
  1
0
  0
DICTIONARYVAR
  5
128
102
{ACAD_REACTORS
330
5D
102
}
330
5D
100
DictionaryVariables
280
     0
  1
1
  0
DICTIONARYVAR
  5
1044
102
{ACAD_REACTORS
330
5D
102
}
330
5D
100
DictionaryVariables
280
     0
  1
96
  0
DICTIONARY
  5
143
102
{ACAD_REACTORS
330
142
102
}
330
142
100
AcDbDictionary
281
     1
  0
XRECORD
  5
23CC
102
{ACAD_REACTORS
330
142
102
}
330
142
100
AcDbXrecord
280
     1
 90
-1023410169
  0
DICTIONARY
  5
172
102
{ACAD_REACTORS
330
171
102
}
330
171
100
AcDbDictionary
281
     1
  3
DWGSETTINGS
350
173
  3
FEM
350
3A0
  3
Shaft
350
393
  3
TRANSSETTINGS
350
17D
  0
DICTIONARY
  5
18A9
102
{ACAD_REACTORS
330
18A8
102
}
330
18A8
100
AcDbDictionary
281
     1
  0
ACAMGFILTERDAT
  5
164B
102
{ACAD_REACTORS
330
1F2
102
}
330
1F2
100
AcAmgFilterDat
 70
    15
  1
DIMENSION,AMDT_*_DIM
  2
*
  3
*
  4
*
  5
*
290
     1
  0
ACAMGFILTERDAT
  5
164C
102
{ACAD_REACTORS
330
1F2
102
}
330
1F2
100
AcAmgFilterDat
 70
    15
  1
*
  2
AM_FEA-AM_*
  3
*
  4
*
  5
*
290
     1
  0
ACAMGFILTERDAT
  5
164D
102
{ACAD_REACTORS
330
1F2
102
}
330
1F2
100
AcAmgFilterDat
 70
    15
  1
HATCH
  2
*
  3
*
  4
*
  5
*
290
     1
  0
ACAMGFILTERDAT
  5
164E
102
{ACAD_REACTORS
330
1F2
102
}
330
1F2
100
AcAmgFilterDat
 70
    15
  1
ACMFCFRAME,ACMDATUMTARGET,ACMDATUMID,ACMWELDSYM,ACMSURFSYM,ACMFEATID,ACMPARTREF,ACMBALLOON
  2
*
  3
*
  4
*
  5
*
290
     1
  0
LAYER_INDEX
  5
17BF
102
{ACAD_REACTORS
330
17BE
102
}
330
17BE
100
AcDbIndex
 40
2453942.37695897
100
AcDbLayerIndex
  8
0
360
2EAD
 90
        6
  8
AM_0
360
2EAE
 90
       34
  8
AM_1
360
2EAF
 90
        0
  8
AM_2
360
2EB0
 90
        0
  8
AM_3
360
2EB1
 90
        3
  8
AM_4
360
2EB2
 90
        1
  8
AM_5
360
2EB3
 90
        7
  8
AM_6
360
2EB4
 90
        1
  8
AM_7
360
2EB5
 90
        6
  8
AM_8
360
2EB6
 90
        0
  8
AM_FR
360
2EB7
 90
        0
  8
ASHADE
360
2EB8
 90
        9
  8
AM_WORK
360
2EB9
 90
        0
  8
AM_CL
360
2EBA
 90
        0
  8
Defpoints
360
2EBB
 90
        0
  8
ASRF_TMP
360
2EBC
 90
        0
  8
AM_VIEWS
360
2EBD
 90
        1
  8
AM_VIS
360
2EBE
 90
        0
  8
AM_HID
360
2EBF
 90
        0
  8
AM_PARDIM
360
2EC0
 90
        0
  8
AmdtBRLock
360
2EC1
 90
        0
  8
5
360
2EC2
 90
        7
  8
1
360
2EC3
 90
        0
  8
7
360
2EC4
 90
        2
  8
3A
360
2EC5
 90
        0
  8
6
360
2EC6
 90
        0
  0
IDBUFFER
  5
2EAD
330
0
100
AcDbIdBuffer
330
1A8D
330
1A92
330
1A93
330
1A96
330
224B
330
2F8E
  0
IDBUFFER
  5
2EAE
330
0
100
AcDbIdBuffer
330
2275
330
2276
330
2277
330
2278
330
2279
330
227A
330
227B
330
227E
330
227F
330
2280
330
2281
330
2282
330
2393
330
2F87
330
2F88
330
2F89
330
2F8A
330
2F8B
330
2F8C
330
2F92
330
2F93
330
2F94
330
2F95
330
2F96
330
2F97
330
2F98
330
2F99
330
2F9A
330
2FA1
330
2FA2
330
2FA3
330
2FA4
330
2FA5
330
2FA6
  0
IDBUFFER
  5
2EAF
330
0
100
AcDbIdBuffer
  0
IDBUFFER
  5
2EB0
330
0
100
AcDbIdBuffer
  0
IDBUFFER
  5
2EB1
330
0
100
AcDbIdBuffer
330
224A
330
2273
330
2274
  0
IDBUFFER
  5
2EB2
330
0
100
AcDbIdBuffer
330
2FA7
  0
IDBUFFER
  5
2EB3
330
0
100
AcDbIdBuffer
330
1CD3
330
1D2D
330
1F71
330
278C
330
2F9B
330
2F9C
330
2F9D
  0
IDBUFFER
  5
2EB4
330
0
100
AcDbIdBuffer
330
1F4F
  0
IDBUFFER
  5
2EB5
330
0
100
AcDbIdBuffer
330
28D0
330
28D2
330
297B
330
297C
330
2F8D
330
2F9F
  0
IDBUFFER
  5
2EB6
330
0
100
AcDbIdBuffer
  0
IDBUFFER
  5
2EB7
330
0
100
AcDbIdBuffer
  0
IDBUFFER
  5
2EB8
330
0
100
AcDbIdBuffer
330
3FB
330
3FC
330
3FD
330
3FE
330
3FF
330
400
330
401
330
402
330
409
  0
IDBUFFER
  5
2EB9
330
0
100
AcDbIdBuffer
  0
IDBUFFER
  5
2EBA
330
0
100
AcDbIdBuffer
  0
IDBUFFER
  5
2EBB
330
0
100
AcDbIdBuffer
  0
IDBUFFER
  5
2EBC
330
0
100
AcDbIdBuffer
  0
IDBUFFER
  5
2EBD
330
0
100
AcDbIdBuffer
330
1BEB
  0
IDBUFFER
  5
2EBE
330
0
100
AcDbIdBuffer
  0
IDBUFFER
  5
2EBF
330
0
100
AcDbIdBuffer
  0
IDBUFFER
  5
2EC0
330
0
100
AcDbIdBuffer
  0
IDBUFFER
  5
2EC1
330
0
100
AcDbIdBuffer
  0
IDBUFFER
  5
2EC2
330
0
100
AcDbIdBuffer
330
247C
330
247D
330
247E
330
247F
330
2480
330
2481
330
2482
  0
IDBUFFER
  5
2EC3
330
0
100
AcDbIdBuffer
  0
IDBUFFER
  5
2EC4
330
0
100
AcDbIdBuffer
330
1F6D
330
1F6F
  0
IDBUFFER
  5
2EC5
330
0
100
AcDbIdBuffer
  0
IDBUFFER
  5
2EC6
330
0
100
AcDbIdBuffer
  0
ENDSEC
  0
EOF
